Чёрная Пантера / Black Panther (2018) BDRip 720p | 60 fps Чёрная Пантера / Black Panther (2018) BDRip 1080p | 60 fps Валериан и город тысячи планет / Valerian and the City of a Thousand Planets (2017) BDRip 1080p | 60 fps Стражи Галактики. Часть 2 / Guardians of the Galaxy Vol. 2 (2017) BDRip 1080p | 60 fps Тор: Рагнарёк / Thor: Ragnarok (2017) BDRip 1080p | 60 fps Доктор Стрэндж / Doctor Strange (2016) BDRip 1080p | 60 fps Первый мститель: Противостояние / Captain America: Civil War (2016) BDRip 1080p | 60 fps Гарри Поттер: Коллекция / Harry Potter: Collection (2001-2011) BDRip-AVC | 60 fps
  1. Стаж:
    3 года 9 месяцев
    Сообщений:
    2363
    Пол:
    Мужской
    «Что, если бы твоя жизнь зависела от незнакомца?» Информация
    Название: Между нами горы
    Оригинальное название: The Mountain Between Us
    Год выхода: 2017
    Жанр: Боевик, триллер, драма, мелодрама, приключения
    Режиссер: Хани Абу-Ассад
    Сценарий: Дж. Миллс Гудло, Крис Вайц, Чарльз Мартин
    Продюсер: Питер Чернин, Дилан Кларк, Дэвид Рэди
    В ролях: Идрис Эльба, Кейт Уинслет, Бо Бриджес, Дермот Малруни, Линда Соренсон, Винсент Гэйл, Марси Т. Хаус, Ли Мадждуб, Андрес Джозеф

    Сюжет:
    В окруженном горами аэропорте Солт-Лейк-Сити отменены все рейсы из-за непогоды. Двое случайных знакомых, Бен и Эшли, решают лететь на маленьком частном самолете. Оба они опаздывают по своим делам и сильно торопятся. К несчастью, самолет терпит крушение в горах. Пилот погибает, и два малознакомых пассажира остаются наедине друг с другом среди заснеженных вершин. Чтобы спастись, им придется совершить невозможное. В короткий срок им предстоит узнать и довериться друг другу во спасение своих жизней.

    Страна: США
    Продолжительность: 01:51:49

    Файл
    Кодек: H.264 | High@L4.1
    Формат: MKV
    Качество: BDRip 1080p | 60 fps
    Видео: 1920 x 804 (2.388) | 59.940 fps | 24.0 Мбит/сек
    Аудио 01: AC3 | 5.1 | 48 kHz | 384 kbps | 16 bit | Дубляж - iTunes |
    Аудио 02: AC3 | 2.0 | 48 kHz | 192 kbps | 16 bit | Paradox&Omskbird |
    Аудио 03: AC3 | 5.1 | 48 kHz | 448 kbps | 16 bit | english |
    Субтитры: Русские (full), английские

    MedifInfo

    Видео
    Идентификатор : 1
    Формат : AVC
    Формат/Информация : Advanced Video Codec
    Профиль формата : High@L4.1
    Параметр CABAC формата : Да
    Параметр ReFrames формата : 5 кадров
    Идентификатор кодека : V_MPEG4/ISO/AVC
    Продолжительность : 1 ч. 51 м.
    Битрейт : 24,0 Мбит/сек
    Ширина : 1920 пикселей
    Высота : 804 пикселя
    Соотношение сторон : 2,40:1
    Режим частоты кадров : Постоянный
    Частота кадров : 59,880 кадров/сек
    Частота кадров в оригинале : 59,940 кадров/сек
    Цветовое пространство : YUV
    Субдискретизация насыщенности : 4:2:0
    Битовая глубина : 8 бит
    Тип развёртки : Прогрессивная
    Бит/(Пиксели*Кадры) : 0.260
    Размер потока : 18,3 Гбайт (94%)
    Заголовок : www.60-fps.org
    Библиотека кодирования : x264 core 152 r2851 ba24899
    Настройки программы : cabac=1 / ref=5 / deblock=1:-3:-3 / analyse=0x3:0x113 / me=hex / subme=8 / psy=1 / psy_rd=1.00:0.25 / mixed_ref=1 / me_range=16 / chroma_me=1 / trellis=2 / 8x8dct=1 / cqm=0 / deadzone=6,6 / fast_pskip=1 / chroma_qp_offset=-4 / threads=12 / lookahead_threads=2 / sliced_threads=0 / nr=0 / decimate=0 / interlaced=0 / bluray_compat=0 / constrained_intra=0 / bframes=3 / b_pyramid=2 / b_adapt=1 / b_bias=0 / direct=3 / weightb=1 / open_gop=0 / weightp=2 / keyint=599 / keyint_min=59 / scenecut=40 / intra_refresh=0 / rc_lookahead=50 / rc=2pass / mbtree=1 / bitrate=23999 / ratetol=1.0 / qcomp=0.80 / qpmin=0 / qpmax=69 / qpstep=4 / cplxblur=20.0 / qblur=0.5 / vbv_maxrate=62500 / vbv_bufsize=78125 / nal_hrd=none / filler=0 / ip_ratio=1.10 / aq=1:0.50
    Default : Да
    Forced : Нет
    Аудио #1
    Идентификатор : 2
    Формат : AC-3
    Формат/Информация : Audio Coding 3
    Расширение режима : CM (complete main)
    Параметр Endianness формата : Big
    Идентификатор кодека : A_AC3
    Продолжительность : 1 ч. 51 м.
    Вид битрейта : Постоянный
    Битрейт : 384 Кбит/сек
    Каналы : 6 каналов
    Расположение каналов : Front: L C R, Side: L R, LFE
    Частота : 48,0 КГц
    Битовая глубина : 16 бит
    Метод сжатия : С потерями
    Размер потока : 307 Мбайт (2%)
    Заголовок : Дубляж - iTunes
    Язык : Russian
    Default : Да
    Forced : Нет
    Аудио #2
    Идентификатор : 3
    Формат : AC-3
    Формат/Информация : Audio Coding 3
    Расширение режима : CM (complete main)
    Параметр Endianness формата : Big
    Идентификатор кодека : A_AC3
    Продолжительность : 1 ч. 51 м.
    Вид битрейта : Постоянный
    Битрейт : 192 Кбит/сек
    Каналы : 2 канала
    Расположение каналов : Front: L R
    Частота : 48,0 КГц
    Битовая глубина : 16 бит
    Метод сжатия : С потерями
    Размер потока : 154 Мбайт (1%)
    Заголовок : Paradox&Omskbird
    Язык : Russian
    Default : Нет
    Forced : Нет
    Аудио #3
    Идентификатор : 4
    Формат : AC-3
    Формат/Информация : Audio Coding 3
    Расширение режима : CM (complete main)
    Параметр Endianness формата : Big
    Идентификатор кодека : A_AC3
    Продолжительность : 1 ч. 51 м.
    Вид битрейта : Постоянный
    Битрейт : 448 Кбит/сек
    Каналы : 6 каналов
    Расположение каналов : Front: L C R, Side: L R, LFE
    Частота : 48,0 КГц
    Битовая глубина : 16 бит
    Метод сжатия : С потерями
    Размер потока : 358 Мбайт (2%)
    Заголовок : english
    Язык : English
    Default : Нет
    Forced : Нет
    Текст #1
    Идентификатор : 5
    Формат : UTF-8
    Идентификатор кодека : S_TEXT/UTF8
    Идентификатор кодека/Информация : UTF-8 Plain Text
    Заголовок : Full
    Язык : Russian
    Default : Нет
    Forced : Нет
    Текст #2
    Идентификатор : 6
    Формат : UTF-8
    Идентификатор кодека : S_TEXT/UTF8
    Идентификатор кодека/Информация : UTF-8 Plain Text
    Заголовок : Full
    Язык : English
    Default : Нет
    Forced : Нет
    Текст #3
    Идентификатор : 7
    Формат : UTF-8
    Идентификатор кодека : S_TEXT/UTF8
    Идентификатор кодека/Информация : UTF-8 Plain Text
    Заголовок : SDH
    Язык : English
    Default : Нет
    Forced : Нет
    Меню
    00:00:00.000 : en:00:00:00.000
    00:02:58.595 : en:00:02:58.595
    00:08:52.782 : en:00:08:52.782
    00:13:15.378 : en:00:13:15.378
    00:16:21.480 : en:00:16:21.480
    00:21:36.253 : en:00:21:36.253
    00:26:51.985 : en:00:26:51.985
    00:31:53.370 : en:00:31:53.370
    00:38:56.084 : en:00:38:56.084
    00:43:45.373 : en:00:43:45.373
    00:51:04.311 : en:00:51:04.311
    00:57:28.737 : en:00:57:28.737
    01:01:22.721 : en:01:01:22.721
    01:04:39.417 : en:01:04:39.417
    01:07:41.057 : en:01:07:41.057
    01:11:06.429 : en:01:11:06.429
    01:14:56.534 : en:01:14:56.534
    01:19:15.125 : en:01:19:15.125
    01:23:48.398 : en:01:23:48.398
    01:27:52.476 : en:01:27:52.476
    01:32:13.570 : en:01:32:13.570
    01:35:41.653 : en:01:35:41.653
    01:41:48.269 : en:01:41:48.269
    01:45:22.483 : en:01:45:22.483

    Релиз подготовлен 60 - fps

  2. Стаж:
    1 год 2 месяца
    Сообщений:
    1
    Пол:
    Не указан
    обязательно посмотрите этот фильм!
    19-Мар-2018 05:56 (спустя 2 месяца 14 дней)


Вы не можете начинать темы
Вы не можете отвечать на сообщения
Вы не можете редактировать свои сообщения
Вы не можете удалять свои сообщения
Вы не можете голосовать в опросах
Вы не можете прикреплять файлы к сообщениям
Вы не можете скачивать файлы