[Цитировать]
BOT2

-Название: Мэгги
Оригинальное название: Maggie
Год выпуска: 2014
Страна: США, Швейцария
Жанр: драма, триллер, ужасы
Продолжительность: 01:35:03
Перевод: Любительский многоголосый
Субтитры: русские (Полные), английские (Полные)-Режиссер: Генри Хобсон / Henry Hobson-В ролях: Арнольд Шварценеггер (Wade Vogel), Эбигейл Бреслин (Maggie Vogel), Джоэли Ричардсон (Caroline), Дуглас М. Гриффин (Ray), Дж.Д. Эвермор (Holt), Рэйчел Уитман Гровс (Bonnie), Джоди Мур (Dr. Vern Kaplan), Брайс Ромеро (Trent), Рэден Грир (Allie), Эйден Флауэрс (Bobby), Карсен Флауэрс (Molly), Уолтер Фон Хьюн (Security Officer)-Описание:
Девочка-подросток Мэгги заражается болезнью, медленно превращающей инфицированных в зомби. Правительство организует карантин для инфицированных, где их помещают в изоляцию. Её любящий отец не готов помещать её в карантин, и она живёт вместе с ним.-Рейтинг
-Качество: BDRip-AVC 60fps
Формат: MKV
Видео кодек: AVC
Аудио кодек:AC3
Видео: AVC, 1024x424 (2.40:1), 4000 kbps, 59,940 fps, 0,154 bpp
Аудио: русский / AC3 / 5.1 / 48 kHz / 384 kbps / 16 bit |Любительский многоголосый ViruseProjetc|
Навигация по главам: есть- -

MI

General
Unique ID : 225021628820952854954556451393246631388 (0xA94996DCE563CF2592FB337759A495DC)
Complete name : A:\Фильмы\Мэгги BDRip-AVC 60fps R.G. HD-Films.mkv
Format : Matroska
Format version : Version 4 / Version 2
File size : 2.91 GiB
Duration : 1h 35mn
Overall bit rate : 4 385 Kbps
Movie name : Tiberiumsun69
Encoded date : UTC 2015-07-01 21:46:27
Writing application : mkvmerge v7.9.0 ('Birds') 64bit
Writing library : libebml v1.3.1 + libmatroska v1.4.2
Attachment : Yes
Video
ID : 1
Format : AVC
Format/Info : Advanced Video Codec
Format profile : High@L4.1
Format settings, CABAC : Yes
Format settings, ReFrames : 4 frames
Codec ID : V_MPEG4/ISO/AVC
Duration : 1h 35mn
Bit rate : 4 000 Kbps
Width : 1 024 pixels
Height : 424 pixels
Display aspect ratio : 2.40:1
Frame rate : 59.940 fps
Color space : YUV
Chroma subsampling : 4:2:0
Bit depth : 8 bits
Scan type : Progressive
Bits/(Pixel*Frame) : 0.154
Stream size : 2.60 GiB (89%)
Title : Tiberiumsun69
Writing library : x264 core 146 r2538 121396c
Encoding settings : cabac=1 / ref=4 / deblock=1:0:0 / analyse=0x3:0x113 / me=umh / subme=9 / psy=1 / psy_rd=1.00:0.10 / mixed_ref=1 / me_range=32 / chroma_me=1 / trellis=2 / 8x8dct=1 / cqm=0 / deadzone=21,11 / fast_pskip=0 / chroma_qp_offset=-3 / threads=12 / lookahead_threads=3 / sliced_threads=0 / nr=0 / decimate=1 / interlaced=0 / bluray_compat=0 / constrained_intra=0 / bframes=16 / b_pyramid=2 / b_adapt=2 / b_bias=0 / direct=3 / weightb=1 / open_gop=0 / weightp=2 / keyint=600 / keyint_min=59 / scenecut=40 / intra_refresh=0 / rc_lookahead=60 / rc=2pass / mbtree=1 / bitrate=4000 / ratetol=1.0 / qcomp=0.60 / qpmin=0 / qpmax=69 / qpstep=4 / cplxblur=20.0 / qblur=0.5 / vbv_maxrate=50000 / vbv_bufsize=62500 / nal_hrd=none / filler=0 / ip_ratio=1.40 / aq=1:1.00
Language : English
Default : Yes
Forced : No
Audio
ID : 2
Format : AC-3
Format/Info : Audio Coding 3
Mode extension : CM (complete main)
Codec ID : A_AC3
Duration : 1h 35mn
Bit rate mode : Constant
Bit rate : 384 Kbps
Channel(s) : 6 channels
Channel positions : Front: L C R, Side: L R, LFE
Sampling rate : 48.0 KHz
Bit depth : 16 bits
Compression mode : Lossy
Stream size : 261 MiB (9%)
Title : Моногоголосый, закадровый ViruseProject
Language : Russian
Default : Yes
Forced : No
Text #1
ID : 3
Format : UTF-8
Codec ID : S_TEXT/UTF8
Codec ID/Info : UTF-8 Plain Text
Title : Полные
Language : Russian
Default : No
Forced : No
Text #2
ID : 4
Format : UTF-8
Codec ID : S_TEXT/UTF8
Codec ID/Info : UTF-8 Plain Text
Title : Полные
Language : English
Default : No
Forced : No
Menu
00:00:00.000 : en:Chapter 01
00:05:52.935 : en:Chapter 02
00:11:26.102 : en:Chapter 03
00:15:55.120 : en:Chapter 04
00:21:30.497 : en:Chapter 05
00:26:50.609 : en:Chapter 06
00:35:09.065 : en:Chapter 07
00:39:17.938 : en:Chapter 08
00:43:35.779 : en:Chapter 09
00:50:51.131 : en:Chapter 10
00:58:38.014 : en:Chapter 11
01:02:09.517 : en:Chapter 12
01:10:28.807 : en:Chapter 13
01:17:32.189 : en:Chapter 14
01:23:27.502 : en:Chapter 15
01:26:38.693 : en:Chapter 16

Скриншоты

[60-fps.org].t845.torrent
Торрент: Зарегистрирован [ 2015-07-04 19:12 ] · A8B377638A8561C8C04025790D4556CA37A4412B

Скачать .torrent

Скачать

15 KB

Статус: проверено
Скачан: 51 раз
Поблагодарили:
Размер: 2,91 GB
 
 
Показать сообщения:    

Текущее время: 23-Фев 12:27

Часовой пояс: UTC + 3


Вы не можете начинать темы
Вы не можете отвечать на сообщения
Вы не можете редактировать свои сообщения
Вы не можете удалять свои сообщения
Вы не можете голосовать в опросах
Вы не можете прикреплять файлы к сообщениям
Вы можете скачивать файлы