VIP

Интерстеллар / Interstellar (2014) BDRip 1080p | IMAX Edition | 60fps Проект Power / Project Power (2020) WEBRip 1080p | 60 fps Новые мутанты / The New Mutants (2020) BDRip 1080p | 60 fps Доктор Стрэндж / Doctor Strange (2016) BDRip 1080p | 60 fps Грань будущего / Edge of Tomorrow (2014) BDRip 1080p | 60 fps Первый мститель: Противостояние / Captain America: Civil War (2016) BDRip 1080p | 60 fps Закат цивилизации / Extinction (2018) BDRip 1080p | 60 fps Первый мститель / Captain America: The First Avenger (2011) BDRip 1080p | 60 fps
  1. Longevity:
    6 years 4 months
    Posts:
    2414
    Gender:
    Male
    «Рожден быть королем»- Информация
    Название: Меч короля Артура
    Оригинальное название: King Arthur: Legend of the Sword
    Год выхода: 2017
    Жанр: Фэнтези, боевик, драма, приключения
    Режиссер: Гай Ричи
    Сценарий: Джоби Харольд, Гай Ричи, Лайонел Уигрэм
    Продюсер: Брюс Берман, Стив Кларк-Холл, Дэвид Добкин
    В ролях: Чарли Ханнэм, Астрид Берже-Фрисби, Джуд Лоу, Джимон Хонсу, Эрик Бана, Эйден Гиллен, Фредди Фокс, Крэйг МакГинли, Том Ву, Кингсли Бен-Адир
    --Сюжет:
    Молодой Артур живёт на задворках Лондиниума вместе со своей бандой. Он и понятия не имел о своём королевском происхождении, пока однажды не взял в руки меч Эскалибур. Меч начинает менять Артура. В результате он присоединяется к сопротивлению и таинственной молодой девушке по имени Гвиневра. Ему предстоит научиться понимать магическое оружие, которым он овладел, столкнуться со своими собственными демонами и объединить народ в борьбе против диктатора Вортигерна, убившего его родителей и завладевшего короной.
    -Страна: США
    Продолжительность: 02:06:13

    Файл
    Кодек: MPEG4/ISO/AVC/H.264
    Формат: MKV
    Качество: BDRip 720p | 60 fps
    Видео: 1280 x 532 (2.406) | 59.940 fps | 10.5 Мбит/сек
    Аудио 1: AC3 | 5.1 | 48 kHz | 384 kbps | 16 bit | Дубляж - iTunes |
    Аудио 2: AC3 | 5.1 | 48 kHz | 640 kbps | 16 bit | Eng |
    Субтитры: Русские (forced, full), английские

    MedifInfo

    Видео
    Идентификатор : 1
    Формат : AVC
    Формат/Информация : Advanced Video Codec
    Профиль формата : [email protected]
    Параметр CABAC формата : Да
    Параметр ReFrames формата : 3 кадра
    Параметр GOP формата : M=3, N=72
    Идентификатор кодека : V_MPEG4/ISO/AVC
    Продолжительность : 2 ч. 6 м.
    Вид битрейта : Переменный
    Битрейт : 10,5 Мбит/сек
    Максимальный битрейт : 11,0 Мбит/сек
    Ширина : 1280 пикселей
    Высота : 532 пикселя
    Соотношение сторон : 2,40:1
    Режим частоты кадров : Постоянный
    Частота кадров : 59,880 кадров/сек
    Частота кадров в оригинале : 59,940 кадров/сек
    Стандарт вещания : PAL
    Цветовое пространство : YUV
    Субдискретизация насыщенности : 4:2:0
    Битовая глубина : 8 бит
    Тип развёртки : Прогрессивная
    Бит/(Пиксели*Кадры) : 0.258
    Размер потока : 9,29 Гбайт (89%)
    Заголовок : www.60-fps.org
    Язык : English
    Default : Да
    Forced : Нет
    Основные цвета : BT.601 NTSC
    Характеристики трансфера : BT.601
    Коэффициенты матрицы : BT.601
    colour_range : Limited
    Аудио #1
    Идентификатор : 2
    Формат : AC-3
    Формат/Информация : Audio Coding 3
    Расширение режима : CM (complete main)
    Параметр Endianness формата : Big
    Идентификатор кодека : A_AC3
    Продолжительность : 2 ч. 6 м.
    Вид битрейта : Постоянный
    Битрейт : 384 Кбит/сек
    Каналы : 6 каналов
    Расположение каналов : Front: L C R, Side: L R, LFE
    Частота : 48,0 КГц
    Битовая глубина : 16 бит
    Метод сжатия : С потерями
    Размер потока : 347 Мбайт (3%)
    Заголовок : Дубляж - iTunes
    Язык : Russian
    Default : Да
    Forced : Нет
    Аудио #2
    Идентификатор : 3
    Формат : AC-3
    Формат/Информация : Audio Coding 3
    Расширение режима : CM (complete main)
    Параметр Endianness формата : Big
    Идентификатор кодека : A_AC3
    Продолжительность : 2 ч. 6 м.
    Вид битрейта : Постоянный
    Битрейт : 640 Кбит/сек
    Каналы : 6 каналов
    Расположение каналов : Front: L C R, Side: L R, LFE
    Частота : 48,0 КГц
    Битовая глубина : 16 бит
    Метод сжатия : С потерями
    Размер потока : 578 Мбайт (5%)
    Заголовок : english
    Язык : English
    Default : Нет
    Forced : Нет
    Текст #1
    Идентификатор : 4
    Формат : UTF-8
    Идентификатор кодека : S_TEXT/UTF8
    Идентификатор кодека/Информация : UTF-8 Plain Text
    Язык : Russian
    Default : Да
    Forced : Нет
    Текст #2
    Идентификатор : 5
    Формат : UTF-8
    Идентификатор кодека : S_TEXT/UTF8
    Идентификатор кодека/Информация : UTF-8 Plain Text
    Язык : Russian
    Default : Нет
    Forced : Нет
    Текст #3
    Идентификатор : 6
    Формат : UTF-8
    Идентификатор кодека : S_TEXT/UTF8
    Идентификатор кодека/Информация : UTF-8 Plain Text
    Язык : English
    Default : Нет
    Forced : Нет
    Меню
    00:00:00.000 : en:1
    00:12:43.000 : en:2
    00:21:05.000 : en:3
    00:32:32.000 : en:4
    00:43:09.000 : en:5
    00:56:48.000 : en:6
    01:06:48.000 : en:7
    01:14:13.000 : en:8
    01:23:44.000 : en:9
    01:36:37.000 : en:10
    01:46:57.000 : en:11
    01:58:59.000 : en:12

    Release was prepared by 60-fps.org

  2. Longevity:
    5 years 5 months
    Posts:
    26
    Gender:
    Male
    Фильм неплох! Но чтобы прям супер нет, не дотягивает. Но на раз посмотреть пойдет. Блин когда уже выйдет Неоспоримый 4 в нормальном качестве, уже на днях появился в Bdremuxe на 23Гига, а вот в Bluray еще пока нет. Да очень надеюсь, что тут на сайте он тоже появится, ведь фильм достойный, бои показаны на высшем уровне, да что уж там говорить ему нет сейчас равных!
    30-Jul-2017 10:48 (after 3 days)
  3. Longevity:
    6 years 3 months
    Posts:
    50
    Gender:
    Male
    Спасибо за фильм и за качество. Фильм действительно хорош. Гай Ричи как всегда на высоте. Посмотрел с удовольствием. Актёрский состав, фирменный клиповый монтаж и интересный сценарий. Советую...
    03-Aug-2017 14:52 (after 4 days)
  4. Longevity:
    3 years 3 months
    Posts:
    1
    Gender:
    Unknown
    А можно поинтересоваться, с какого бодуна, у меня из 50 метров доступный трафик только в 10 ?
    04-Jan-2018 13:53 (after 5 months)


You cannot post new topics in this forum
You cannot reply to topics in this forum
You cannot edit your posts in this forum
You cannot delete your posts in this forum
You cannot vote in polls in this forum
You cannot attach files in this forum
You cannot download files in this forum