VIP

Интерстеллар / Interstellar (2014) BDRip 1080p | IMAX Edition | 60fps Проект Power / Project Power (2020) WEBRip 1080p | 60 fps Доктор Стрэндж / Doctor Strange (2016) BDRip 1080p | 60 fps Новые мутанты / The New Mutants (2020) BDRip 1080p | 60 fps Грань будущего / Edge of Tomorrow (2014) BDRip 1080p | 60 fps Обитель зла: Пенталогия / Resident Evil: Pentalogy (2002-2012) BDRip-AVC | 60 fps Бессмертная гвардия / The Old Guard (2020) WEBRip 1080p | 60 fps Тор: Рагнарёк / Thor: Ragnarok (2017) BDRip 1080p | 60 fps
  1. Longevity:
    6 years 4 months
    Posts:
    2414
    Gender:
    Male
    «Рожден быть королем»- Информация
    Название: Меч короля Артура
    Оригинальное название: King Arthur: Legend of the Sword
    Год выхода: 2017
    Жанр: Фэнтези, боевик, драма, приключения
    Режиссер: Гай Ричи
    Сценарий: Джоби Харольд, Гай Ричи, Лайонел Уигрэм
    Продюсер: Брюс Берман, Стив Кларк-Холл, Дэвид Добкин
    В ролях: Чарли Ханнэм, Астрид Берже-Фрисби, Джуд Лоу, Джимон Хонсу, Эрик Бана, Эйден Гиллен, Фредди Фокс, Крэйг МакГинли, Том Ву, Кингсли Бен-Адир
    --Сюжет:
    Молодой Артур живёт на задворках Лондиниума вместе со своей бандой. Он и понятия не имел о своём королевском происхождении, пока однажды не взял в руки меч Эскалибур. Меч начинает менять Артура. В результате он присоединяется к сопротивлению и таинственной молодой девушке по имени Гвиневра. Ему предстоит научиться понимать магическое оружие, которым он овладел, столкнуться со своими собственными демонами и объединить народ в борьбе против диктатора Вортигерна, убившего его родителей и завладевшего короной.
    -Страна: США
    Продолжительность: 02:06:13

    Файл
    Кодек: MPEG4/ISO/AVC/H.264
    Формат: MKV
    Качество: BDRip 1080p | 60 fps
    Видео: 1920 x 800 (2.400) | 59.940 fps | 23.0 Мбит/сек
    Аудио 1: AC3 | 5.1 | 48 kHz | 384 kbps | 16 bit | Дубляж - iTunes |
    Аудио 2: AC3 | 5.1 | 48 kHz | 640 kbps | 16 bit | Eng |
    Субтитры: Русские (forced, full), английские

    MedifInfo

    Видео
    Идентификатор : 1
    Формат : AVC
    Формат/Информация : Advanced Video Codec
    Профиль формата : [email protected]
    Параметр CABAC формата : Да
    Параметр ReFrames формата : 5 кадров
    Идентификатор кодека : V_MPEG4/ISO/AVC
    Продолжительность : 2 ч. 6 м.
    Битрейт : 23,0 Мбит/сек
    Ширина : 1920 пикселей
    Высота : 800 пикселей
    Соотношение сторон : 2,40:1
    Режим частоты кадров : Постоянный
    Частота кадров : 59,880 кадров/сек
    Частота кадров в оригинале : 59,940 кадров/сек
    Цветовое пространство : YUV
    Субдискретизация насыщенности : 4:2:0
    Битовая глубина : 8 бит
    Тип развёртки : Прогрессивная
    Бит/(Пиксели*Кадры) : 0.250
    Размер потока : 19,8 Гбайт (94%)
    Заголовок : www.60-fps.org
    Библиотека кодирования : x264 core 148 r2744 b97ae06
    Настройки программы : cabac=1 / ref=5 / deblock=1:-3:-3 / analyse=0x3:0x113 / me=umh / subme=8 / psy=1 / psy_rd=1.00:0.25 / mixed_ref=1 / me_range=32 / chroma_me=1 / trellis=1 / 8x8dct=1 / cqm=0 / deadzone=6,6 / fast_pskip=1 / chroma_qp_offset=-4 / threads=12 / lookahead_threads=2 / sliced_threads=0 / nr=0 / decimate=0 / interlaced=0 / bluray_compat=0 / constrained_intra=0 / bframes=3 / b_pyramid=2 / b_adapt=1 / b_bias=0 / direct=3 / weightb=1 / open_gop=0 / weightp=2 / keyint=599 / keyint_min=59 / scenecut=40 / intra_refresh=0 / rc_lookahead=50 / rc=2pass / mbtree=1 / bitrate=22999 / ratetol=1.0 / qcomp=0.80 / qpmin=0 / qpmax=69 / qpstep=4 / cplxblur=20.0 / qblur=0.5 / vbv_maxrate=62500 / vbv_bufsize=78125 / nal_hrd=none / filler=0 / ip_ratio=1.10 / aq=1:0.50
    Default : Да
    Forced : Нет
    Аудио #1
    Идентификатор : 2
    Формат : AC-3
    Формат/Информация : Audio Coding 3
    Расширение режима : CM (complete main)
    Параметр Endianness формата : Big
    Идентификатор кодека : A_AC3
    Продолжительность : 2 ч. 6 м.
    Вид битрейта : Постоянный
    Битрейт : 384 Кбит/сек
    Каналы : 6 каналов
    Расположение каналов : Front: L C R, Side: L R, LFE
    Частота : 48,0 КГц
    Битовая глубина : 16 бит
    Метод сжатия : С потерями
    Размер потока : 347 Мбайт (2%)
    Заголовок : Дубляж - iTunes
    Язык : Russian
    Default : Да
    Forced : Нет
    Аудио #2
    Идентификатор : 3
    Формат : AC-3
    Формат/Информация : Audio Coding 3
    Расширение режима : CM (complete main)
    Параметр Endianness формата : Big
    Идентификатор кодека : A_AC3
    Продолжительность : 2 ч. 6 м.
    Вид битрейта : Постоянный
    Битрейт : 640 Кбит/сек
    Каналы : 6 каналов
    Расположение каналов : Front: L C R, Side: L R, LFE
    Частота : 48,0 КГц
    Битовая глубина : 16 бит
    Метод сжатия : С потерями
    Размер потока : 578 Мбайт (3%)
    Заголовок : english
    Язык : English
    Default : Нет
    Forced : Нет
    Текст #1
    Идентификатор : 4
    Формат : UTF-8
    Идентификатор кодека : S_TEXT/UTF8
    Идентификатор кодека/Информация : UTF-8 Plain Text
    Язык : Russian
    Default : Да
    Forced : Нет
    Текст #2
    Идентификатор : 5
    Формат : UTF-8
    Идентификатор кодека : S_TEXT/UTF8
    Идентификатор кодека/Информация : UTF-8 Plain Text
    Язык : Russian
    Default : Нет
    Forced : Нет
    Текст #3
    Идентификатор : 6
    Формат : UTF-8
    Идентификатор кодека : S_TEXT/UTF8
    Идентификатор кодека/Информация : UTF-8 Plain Text
    Язык : English
    Default : Нет
    Forced : Нет
    Меню
    00:00:00.000 : en:1
    00:12:43.000 : en:2
    00:21:05.000 : en:3
    00:32:32.000 : en:4
    00:43:09.000 : en:5
    00:56:48.000 : en:6
    01:06:48.000 : en:7
    01:14:13.000 : en:8
    01:23:44.000 : en:9
    01:36:37.000 : en:10
    01:46:57.000 : en:11
    01:58:59.000 : en:12

    Release was prepared by 60-fps.org

  2. Longevity:
    4 years 6 months
    Posts:
    1575
    Gender:
    Male
    Ожидание
    28-Jul-2017 18:46 (after 2 days 2 hours)
  3. Longevity:
    4 years 2 months
    Posts:
    5
    Gender:
    Female
    Ммммм... Вкусняшка) Удивляюсь
    Спасибо!
    28-Jul-2017 22:36 (after 3 hours)
  4. Longevity:
    5 years 6 months
    Posts:
    149
    Gender:
    Male
    Большое Спасибо Улыбаюсь Овации
    01-Sep-2017 08:55 (after 1 month 3 days)
  5. Longevity:
    4 years 7 months
    Posts:
    11
    Gender:
    Unknown
    Улыбаюсь Улыбаюсь Улыбаюсь
    01-Sep-2017 11:02 (after 2 hours 7 minutes)
  6. Longevity:
    4 years 1 month
    Posts:
    6
    Gender:
    Unknown
    отличное кино,спасибо за раздачу!
    27-Sep-2017 00:56 (after 25 days)


You cannot post new topics in this forum
You cannot reply to topics in this forum
You cannot edit your posts in this forum
You cannot delete your posts in this forum
You cannot vote in polls in this forum
You cannot attach files in this forum
You cannot download files in this forum