Статистика раздачи
Размер:  678 MB   |    Зарегистрирован:  2 года 9 месяцев   |    Скачан:  64 раза
Сидов:  1  [  0 KB/s  ]   Подробная статистика пиров
 
 
 
Luis Fonsi - Despacito ft. Daddy Yankee (2017) WEBRip 1080p | 60 fps Taylor Swift - …Ready For It? (2017) WEBRip 1080p | 60 fps Jennifer Lopez feat. Gente de Zona - Ni Tu Ni Yo (2017) WEBRip 1080p | 60 fps Katy Perry - Dark Horse (2014) Full HD 1080p | 60 fps Taylor Swift - Look What You Made Me Do (2017) WEBRip 1080p | 60 fps Serebro - В Космосе (2017) Full HD 1080p | 60 fps Inna - Gimme Gimme (2017) Full HD 1080p | 60 fps Britney Spears - Toxic (2004) HDTVRip 1080p | 60 fps Shakira - Chantaje ft. Maluma (2016) Full HD 1080p | 60 fps Serebro - Пройдёт (Mood Video) (2017) Full HD 1080p | 60 fps Dan Balan - Chica Bomb (2010) WEBRip 1080p | 60 fps Глюк'oZа feat. Artik & Asti - Пахну лишь тобой (2017) 2K | WEBRip | 60 fps
  1. Стаж:
    3 года 1 месяц
    Сообщений:
    284
    Пол:
    Мужской
     
    Mc Doni feat. Натали - Ты такой (2015) Full HD 1080p | 60 fps

    Информация о Клипе:
    Исполнители:Mc Doni feat. Натали
    Название:Ты такой
    Год выпуска: 2015 г.
    Жанр: Поп
    Страна: Россия
    Продолжительность: 03.35мин

    Файл:
    Формат видео: MKV
    Качество видео: Full HD 1080p | 60 fps
    Видео кодек: H.264
    Аудио кодек: AC3
    Видео: 1920x808 | 60,000 кадров/сек | 26,0 Мбит/сек
    Аудио: AC3 | 2 channels | 48 kHz |384 Кбит/сек

    Автор Рипа:Kamikkadze

    Отчёт MediaInfo

    Общее
    Уникальный идентификатор : 177839333179489215403941367709659786447 (0x85CA9C15B1A7DE338E13E4FA3D176CCF)
    Полное имя : C:\Users\Kamikkadze\Desktop\Клипы\на 60\MC Doni feat. Натали - Ты такой (Rip By Kamikkadze).mkv
    Формат : Matroska
    Версия формата : Version 4 / Version 2
    Размер файла : 678 Мбайт
    Продолжительность : 3 м. 35 с.
    Общий поток : 26,4 Мбит/сек
    Название фильма : MC Doni feat. Натали - Ты такой (Rip By Kamikkadze)
    Дата кодирования : UTC 2015-05-01 13:58:02
    Программа кодирования : mkvmerge v7.8.0 ('River Man') 64bit built on Mar 27 2015 16:31:37
    Библиотека кодирования : libebml v1.3.1 + libmatroska v1.4.2
    DURATION : 00:03:35.040000000
    NUMBER_OF_FRAMES : 6720
    NUMBER_OF_BYTES : 10321920
    _STATISTICS_WRITING_APP : mkvmerge v7.8.0 ('River Man') 64bit built on Mar 27 2015 16:31:37
    _STATISTICS_WRITING_DATE_UTC : 2015-05-01 13:58:02
    _STATISTICS_TAGS : BPS DURATION NUMBER_OF_FRAMES NUMBER_OF_BYTES
    Видео
    Идентификатор : 1
    Формат : AVC
    Формат/Информация : Advanced Video Codec
    Профиль формата : High@L4.2
    Параметр CABAC формата : Да
    Параметр ReFrames формата : 8 кадров
    Идентификатор кодека : V_MPEG4/ISO/AVC
    Продолжительность : 3 м. 35 с.
    Битрейт : 26,0 Мбит/сек
    Ширина : 1920 пикселей
    Высота : 808 пикселей
    Соотношение сторон : 2,40:1
    Режим частоты кадров : Постоянный
    Частота кадров : 60,000 кадров/сек
    Цветовое пространство : YUV
    Субдискретизация насыщенности : 4:2:0
    Битовая глубина : 8 бит
    Тип развёртки : Прогрессивная
    Бит/(Пиксели*Кадры) : 0.279
    Размер потока : 655 Мбайт (97%)
    Заголовок : Rip By Kamikkadze(Специально для проекта 60-fps.org)
    Библиотека кодирования : x264 core 130 r2273 b3065e6
    Настройки программы : cabac=1 / ref=8 / deblock=1:-1:-1 / analyse=0x3:0x133 / me=umh / subme=7 / psy=1 / psy_rd=1.00:0.10 / mixed_ref=1 / me_range=16 / chroma_me=1 / trellis=2 / 8x8dct=1 / cqm=0 / deadzone=21,11 / fast_pskip=0 / chroma_qp_offset=-3 / threads=6 / lookahead_threads=1 / sliced_threads=0 / nr=0 / decimate=1 / interlaced=0 / bluray_compat=0 / constrained_intra=0 / bframes=3 / b_pyramid=2 / b_adapt=2 / b_bias=0 / direct=3 / weightb=1 / open_gop=0 / weightp=2 / keyint=250 / keyint_min=25 / scenecut=40 / intra_refresh=0 / rc_lookahead=50 / rc=2pass / mbtree=1 / bitrate=26000 / ratetol=1.0 / qcomp=0.60 / qpmin=0 / qpmax=69 / qpstep=4 / cplxblur=20.0 / qblur=0.5 / ip_ratio=1.40 / aq=1:1.00
    Язык : Russian
    Default : Да
    Forced : Нет
    Аудио
    Идентификатор : 2
    Формат : AC-3
    Формат/Информация : Audio Coding 3
    Расширение режима : CM (complete main)
    Параметр Endianness формата : Big
    Идентификатор кодека : A_AC3
    Продолжительность : 3 м. 35 с.
    Вид битрейта : Постоянный
    Битрейт : 384 Кбит/сек
    Каналы : 2 канала
    Расположение каналов : Front: L R
    Частота : 48,0 КГц
    Битовая глубина : 16 бит
    Метод сжатия : С потерями
    Размер потока : 9,84 Мбайт (1%)
    Заголовок : Rip By Kamikkadze(Специально для проекта 60-fps.org)
    Язык : Russian
    Default : Да
    Forced : Нет
    Просьба к переливающим на другие сайты, в оформлении указывайте пожалуйста авторство рипа - Kamikkadze

    Релиз подготовлен 60 - fps

    [60-fps.org].t621.torrent
    Торрент: Зарегистрирован 2015-05-01 17:02
    HASH: D3D45DBF778CF68F65B295B280127948910877
    Статус: проверено
    Скачан: 64 раз
    Сидов: 1 [0 KB/s]
    Личеров: 0
    Оценка:
    (Голосов: 5)
    Поблагодарили: 12  Спасибо   (список)
    Похожие Темы


Вы не можете начинать темы
Вы не можете отвечать на сообщения
Вы не можете редактировать свои сообщения
Вы не можете удалять свои сообщения
Вы не можете голосовать в опросах
Вы не можете прикреплять файлы к сообщениям
Вы можете скачивать файлы