Топ Топиков за 24 часа
 
Джон Уик 2 / John Wick: Chapter Two (2017) BDRip 720p | 60 fps Форсаж 8 / The Fate of the Furious (2017) BDRip 1080p | 60 fps Стражи Галактики. Часть 2 / Guardians of the Galaxy Vol. 2 (2017) BDRip 1080p | 60 fps Призрак в доспехах / Ghost in the Shell (2017) BDRip 1080p | 60 fps Великая стена / The Great Wall (2016) BDRip 1080p | 60 fps Форсаж 8 / The Fate of the Furious (2017) BDRip 720p | 60 fps Варкрафт / Warcraft (2016) BDRip 1080p | 60 fps Доктор Стрэндж / Doctor Strange (2016) BDRip 1080p | 60 fps Конг: Остров черепа / Kong: Skull Island (2017) BDRip 1080p | 60 fps Чужой: Завет / Alien: Covenant (2016) BDRip 720p | 60 fps Аватар / Avatar (2009) BDRip 1080p | 120 fps | Extended Collector's Cut | Experimental Логан / Logan (2017) BDRip 1080p | 60 fps
  1. bot

    Стаж:
    3 года 1 месяц
    Сообщений:
    413
    Пол:
    Не указан
    «Был никем - стал героем»- Информация о фильме
    Название: Маска
    Оригинальное название: The Mask
    Год выхода: 1994
    Жанр: фэнтези, боевик, мелодрама, комедия, криминал
    Режиссер: Чак Рассел
    Сценарий: Майк Уэрб, Майкл Фэллон, Марк Верхайден
    Продюсер: Анн Бюргюн, Майкл Де Лука, Роберт Энгелман
    В ролях: Джим Керри, Питер Ригерт, Питер Грин, Эми Ясбек, Кэмерон Диаз, Орестес Матасена, Тим Бэгли, Нэнси Фиш, Джонни Уильямс, Рег Э. Кэти
    --О фильме:
    Скромный, застенчивый служащий банка закомплексован настолько, что чувствует себя неуверенно с красивыми девушками. Волею судьбы к нему попадает волшебная маска, и Стенли Ипкис приобретает способность превращаться в неуязвимое мультяшное существо из забавных комиксов.
    Он становится супергероем, готовым бороться с преступностью, как Бэтмен. Итак, днем он по-прежнему скромный и незадачливый служащий, а по ночам — супермен…
    - - Страна: США
    Продолжительность: 1:42:12
    -- Файл
    Кодек: MPEG4/ISO/AVC H.264
    Формат: MKV
    Качество: BDRip 720p
    Видео: 1280 x 720 (1.778) | 59.940 fps | 7.6 Мбит/сек
    Аудио : AC3 | 2.0 | 48 kHz | 192 kbps | 16 bit | Профессиональный многоголосый закадровый |

    MedifInfo

    Видео
    Идентификатор : 1
    Формат : AVC
    Формат/Информация : Advanced Video Codec
    Профиль формата : High@L3.2
    Параметр CABAC формата : Нет
    Параметр ReFrames формата : 2 кадра
    Идентификатор кодека : V_MPEG4/ISO/AVC
    Продолжительность : 1 м. 57 с.
    Битрейт : 7905 Кбит/сек
    Ширина : 1280 пикселей
    Высота : 720 пикселей
    Соотношение сторон : 16:9
    Режим частоты кадров : Постоянный
    Частота кадров : 59,880 кадров/сек
    Частота кадров в оригинале : 59,940 кадров/сек
    Цветовое пространство : YUV
    Субдискретизация насыщенности : 4:2:0
    Битовая глубина : 8 бит
    Тип развёртки : Прогрессивная
    Бит/(Пиксели*Кадры) : 0.143
    Размер потока : 111 Мбайт (96%)
    Язык : English
    Default : Нет
    Forced : Нет
    Аудио
    Идентификатор : 2
    Формат : AC-3
    Формат/Информация : Audio Coding 3
    Расширение режима : CM (complete main)
    Параметр Endianness формата : Big
    Идентификатор кодека : A_AC3
    Продолжительность : 1 м. 57 с.
    Вид битрейта : Постоянный
    Битрейт : 192 Кбит/сек
    Каналы : 2 канала
    Расположение каналов : Front: L R
    Частота : 48,0 КГц
    Битовая глубина : 16 бит
    Метод сжатия : С потерями
    Размер потока : 2,70 Мбайт (2%)
    Язык : English
    Default : Нет
    Forced : Нет
    Автор рипа: ZHz
  2. ZHz

    Стаж:
    3 года 1 месяц
    Сообщений:
    188
    Пол:
    Мужской
     
    Это ужас! Я не в восторге от своих старых раздач. Делал тогда все на стандартных настройках
  3. Стаж:
    2 года 8 месяцев
    Сообщений:
    1
    Пол:
    Не указан
     
    Ребята спасибо большое за классный сайт! И отдельное спасибо, за фильм из детства!
    24-Мар-2015 18:18 (спустя 22 минуты)
  4. Стаж:
    2 года 7 месяцев
    Сообщений:
    1
    Пол:
    Не указан
     
    спасибо за фильм, но почему-то минут за 20 до конца обрывается, пробовал на разных ПК и плеерах (( поправьте пожалуйста.
    15-Апр-2015 20:10 (спустя 22 дня)


Вы не можете начинать темы
Вы не можете отвечать на сообщения
Вы не можете редактировать свои сообщения
Вы не можете удалять свои сообщения
Вы не можете голосовать в опросах
Вы не можете прикреплять файлы к сообщениям
Вы не можете скачивать файлы