Властелин колец: Трилогия / The Lord of the Rings: Trilogy (2001-2003) BDRip-AVC | Extended Cut | 60 fps Принц Персии: Пески времени / Prince of Persia: The Sands of Time (2010) BDRip 1080p | 60 fps День, когда Земля остановилась / The Day the Earth Stood Still (2008) BDRip 1080p | 60 fps К звёздам / Ad Astra (2019) BDRip 1080p | 60 fps Удивительное путешествие доктора Дулиттла / Dolittle (2020) BDRip 1080p | 60 fps Охота / The Hunt (2020) BDRip 1080p | 60 fps Пятый элемент / The Fifth Element (1997) BDRip 1080p | 60 fps Фантастическая четверка : Дилогия / Fantastic Four: Dilogy (2005-2007) BDRip 1080p | 60 fps
  1. bot

    Longevity:
    6 years
    Posts:
    410
    Gender:
    Unknown
    «Был никем - стал героем»- Информация о фильме
    Название: Маска
    Оригинальное название: The Mask
    Год выхода: 1994
    Жанр: фэнтези, боевик, мелодрама, комедия, криминал
    Режиссер: Чак Рассел
    Сценарий: Майк Уэрб, Майкл Фэллон, Марк Верхайден
    Продюсер: Анн Бюргюн, Майкл Де Лука, Роберт Энгелман
    В ролях: Джим Керри, Питер Ригерт, Питер Грин, Эми Ясбек, Кэмерон Диаз, Орестес Матасена, Тим Бэгли, Нэнси Фиш, Джонни Уильямс, Рег Э. Кэти
    --О фильме:
    Скромный, застенчивый служащий банка закомплексован настолько, что чувствует себя неуверенно с красивыми девушками. Волею судьбы к нему попадает волшебная маска, и Стенли Ипкис приобретает способность превращаться в неуязвимое мультяшное существо из забавных комиксов.
    Он становится супергероем, готовым бороться с преступностью, как Бэтмен. Итак, днем он по-прежнему скромный и незадачливый служащий, а по ночам — супермен…
    - - Страна: США
    Продолжительность: 1:42:12
    -- Файл
    Кодек: MPEG4/ISO/AVC H.264
    Формат: MKV
    Качество: BDRip 720p
    Видео: 1280 x 720 (1.778) | 59.940 fps | 7.6 Мбит/сек
    Аудио : AC3 | 2.0 | 48 kHz | 192 kbps | 16 bit | Профессиональный многоголосый закадровый |

    MedifInfo

    Видео
    Идентификатор : 1
    Формат : AVC
    Формат/Информация : Advanced Video Codec
    Профиль формата : High@L3.2
    Параметр CABAC формата : Нет
    Параметр ReFrames формата : 2 кадра
    Идентификатор кодека : V_MPEG4/ISO/AVC
    Продолжительность : 1 м. 57 с.
    Битрейт : 7905 Кбит/сек
    Ширина : 1280 пикселей
    Высота : 720 пикселей
    Соотношение сторон : 16:9
    Режим частоты кадров : Постоянный
    Частота кадров : 59,880 кадров/сек
    Частота кадров в оригинале : 59,940 кадров/сек
    Цветовое пространство : YUV
    Субдискретизация насыщенности : 4:2:0
    Битовая глубина : 8 бит
    Тип развёртки : Прогрессивная
    Бит/(Пиксели*Кадры) : 0.143
    Размер потока : 111 Мбайт (96%)
    Язык : English
    Default : Нет
    Forced : Нет
    Аудио
    Идентификатор : 2
    Формат : AC-3
    Формат/Информация : Audio Coding 3
    Расширение режима : CM (complete main)
    Параметр Endianness формата : Big
    Идентификатор кодека : A_AC3
    Продолжительность : 1 м. 57 с.
    Вид битрейта : Постоянный
    Битрейт : 192 Кбит/сек
    Каналы : 2 канала
    Расположение каналов : Front: L R
    Частота : 48,0 КГц
    Битовая глубина : 16 бит
    Метод сжатия : С потерями
    Размер потока : 2,70 Мбайт (2%)
    Язык : English
    Default : Нет
    Forced : Нет
    Автор рипа: ZHz
  2. ZHz

    Longevity:
    5 years 11 months
    Posts:
    187
    Gender:
    Male
    Это ужас! Я не в восторге от своих старых раздач. Делал тогда все на стандартных настройках
  3. Longevity:
    5 years 6 months
    Posts:
    1
    Gender:
    Unknown
    Ребята спасибо большое за классный сайт! И отдельное спасибо, за фильм из детства!
    24-Mar-2015 18:18 (after 22 minutes)
  4. Longevity:
    5 years 6 months
    Posts:
    1
    Gender:
    Unknown
    спасибо за фильм, но почему-то минут за 20 до конца обрывается, пробовал на разных ПК и плеерах (( поправьте пожалуйста.
    15-Apr-2015 20:10 (after 22 days)


You cannot post new topics in this forum
You cannot reply to topics in this forum
You cannot edit your posts in this forum
You cannot delete your posts in this forum
You cannot vote in polls in this forum
You cannot attach files in this forum
You cannot download files in this forum