[Цитировать]
mimok

Маша и Медведь: Учитель танцев (2014) WEB-DLRip 720p | 60fps- Год выпуска: 2014
Производство: Россия / Анимаккорд
Жанр: Мультфильм, комедия, семейный-Режиссер: Олег Кузовков, Олег Ужинов, Денис Червяцов
Продюсер: Андрей Добрунов, Дмитрий Ловейко, Олег Кузовков
Актеры: Алина Кукушкина, Эдуард Назаров, Борис Кутневич-Описание фильма:
К Медведю в гости снова приезжает его племянник Панда. В этот раз его соперничество с Машей направлено в танцевальное русло. Пока свинья пытается обучить этих непосед, Медведь строит во дворе сцену, на которой вскоре впервые в лесу пройдёт целая танцевальная феерия!-Перевод: Оригинал
Субтитры: отсутствуют- -Продолжительность: 00:06:54
Качество видео: WEB-DLRip 720p-Видеокодек: MPEG-4 AVC/H.264
Битрейт видео: ~ 8164 Кбит/сек
Размер кадра: 1280 x 720
Аудио: AC3 2, 48.0 KHz, 192 Kbps - Русский-

MediaInfo

Общее
Уникальный идентификатор : 209096428986999950728470733929037437560 (0x9D4E81E3FC95456F99C72E87B1201A78)
Полное имя : D:\Торренты\46.Учитель танцев 60fps.mkv
Формат : Matroska
Версия формата : Version 2
Размер файла : 421 Мбайт
Продолжительность : 6 м. 54 с.
Общий поток : 8526 Кбит/сек
Дата кодирования : UTC 2014-10-28 17:08:37
Программа кодирования : mkvmerge v5.8.0 ('No Sleep / Pillow') built on Sep 2 2012 15:37:04
Библиотека кодирования : libebml v1.2.3 + libmatroska v1.3.0
Видео
Идентификатор : 1
Формат : AVC
Формат/Информация : Advanced Video Codec
Профиль формата : High@L4.1
Параметр CABAC формата : Да
Параметр ReFrames формата : 6 кадров
Идентификатор кодека : V_MPEG4/ISO/AVC
Продолжительность : 6 м. 54 с.
Битрейт : 8164 Кбит/сек
Ширина : 1280 пикселей
Высота : 720 пикселей
Соотношение сторон : 16:9
Режим частоты кадров : Постоянный
Частота кадров : 60,000 кадров/сек
Цветовое пространство : YUV
Субдискретизация насыщенности : 4:2:0
Битовая глубина : 8 бит
Тип развёртки : Прогрессивная
Бит/(Пиксели*Кадры) : 0.148
Размер потока : 404 Мбайт (96%)
Библиотека кодирования : x264 core 125 r2208 d9d2288
Настройки программы : cabac=1 / ref=6 / deblock=1:1:1 / analyse=0x3:0x133 / me=umh / subme=8 / psy=1 / psy_rd=1.00:0.15 / mixed_ref=1 / me_range=20 / chroma_me=1 / trellis=2 / 8x8dct=1 / cqm=0 / deadzone=21,11 / fast_pskip=0 / chroma_qp_offset=-3 / threads=6 / lookahead_threads=1 / sliced_threads=0 / nr=0 / decimate=0 / interlaced=0 / bluray_compat=0 / constrained_intra=0 / bframes=8 / b_pyramid=2 / b_adapt=2 / b_bias=0 / direct=1 / weightb=1 / open_gop=0 / weightp=2 / keyint=600 / keyint_min=60 / scenecut=40 / intra_refresh=0 / rc=crf / mbtree=0 / crf=16.0 / qcomp=0.63 / qpmin=10 / qpmax=51 / qpstep=4 / ip_ratio=1.40 / pb_ratio=1.30 / aq=1:1.20
Default : Да
Forced : Нет
Аудио
Идентификатор : 2
Формат : AC-3
Формат/Информация : Audio Coding 3
Расширение режима : CM (complete main)
Параметр Endianness формата : Big
Идентификатор кодека : A_AC3
Продолжительность : 6 м. 54 с.
Вид битрейта : Постоянный
Битрейт : 192 Кбит/сек
Каналы : 2 канала
Расположение каналов : Front: L R
Частота : 48,0 КГц
Битовая глубина : 16 бит
Метод сжатия : С потерями
Размер потока : 9,49 Мбайт (2%)
Default : Да
Forced : Нет

Скринлист

Скриншоты:
 
Показать сообщения:    

Текущее время: 21-Сен 15:28

Часовой пояс: UTC + 3


Вы не можете начинать темы
Вы не можете отвечать на сообщения
Вы не можете редактировать свои сообщения
Вы не можете удалять свои сообщения
Вы не можете голосовать в опросах
Вы не можете прикреплять файлы к сообщениям
Вы не можете скачивать файлы