[Цитировать]
Kryl

- Информация о фильтфильме
Название: Маша и Медведь
Год выхода: 2015
Жанр: Мультсериал, компьютерная анимация, сказка, детский, семейный
Режиссер: Олег Кузовков, Олег Ужинов, Денис Червяцов
Сценарий: Олег Кузовков
Продюсер: Андрей Добрунов, Дмитрий Ловейко, Олег Кузовков
Роли озвучивали: Алина Кукушкина, Борис Кутневич, Эдуард Назаров
--О фильтфильме:
Что же, что же случится, когда Маша всё-таки вырастет? Неужели нет никакого лекарства против взросления и ни единой возможности обхитрить время?!- - Страна: Россия
Продолжительность: 00:07:02
-- Файл
Кодек: MPEG4/ISO/AVC H.264
Формат: MKV
Качество: WEBRip 720p
Видео: 1280 x 720 (1.778) | 60.000 fps | 4.7 Мбит/сек
Аудио: AC3 | 2.0 | 48 kHz | 192 kbps | 16 bit

MedifInfo

Видео
Идентификатор : 1
Формат : AVC
Формат/Информация : Advanced Video Codec
Профиль формата : Main@L4.1
Параметр CABAC формата : Да
Параметр ReFrames формата : 3 кадра
Идентификатор кодека : V_MPEG4/ISO/AVC
Продолжительность : 7 м. 1 с.
Битрейт : 4785 Кбит/сек
Ширина : 1280 пикселей
Высота : 720 пикселей
Соотношение сторон : 16:9
Режим частоты кадров : Постоянный
Частота кадров : 60,000 кадров/сек
Стандарт вещания : PAL
Цветовое пространство : YUV
Субдискретизация насыщенности : 4:2:0
Битовая глубина : 8 бит
Тип развёртки : Прогрессивная
Бит/(Пиксели*Кадры) : 0.087
Размер потока : 241 Мбайт (94%)
Язык : English
Default : Да
Forced : Нет
Основные цвета : BT.709
Характеристики трансфера : BT.709
Коэффициенты матрицы : BT.709
colour_range : Limited
Аудио
Идентификатор : 2
Формат : AC-3
Формат/Информация : Audio Coding 3
Расширение режима : CM (complete main)
Параметр Endianness формата : Big
Идентификатор кодека : A_AC3
Продолжительность : 7 м. 1 с.
Вид битрейта : Постоянный
Битрейт : 192 Кбит/сек
Каналы : 2 канала
Расположение каналов : Front: L R
Частота : 48,0 КГц
Битовая глубина : 16 бит
Метод сжатия : С потерями
Размер потока : 9,65 Мбайт (4%)
Default : Да
Forced : Нет

Релиз подготовлен 60 - fps

 
Показать сообщения:    

Текущее время: 25-Май 00:30

Часовой пояс: UTC + 3


Вы не можете начинать темы
Вы не можете отвечать на сообщения
Вы не можете редактировать свои сообщения
Вы не можете удалять свои сообщения
Вы не можете голосовать в опросах
Вы не можете прикреплять файлы к сообщениям
Вы не можете скачивать файлы