[Цитировать]
mimok

Маша и Медведь (2009-2014) BDRip 720p | Серии 1-46 | 48-60fps«....»- Информация о фильме
Название: Маша и Медведь
Оригинальное название: Маша и Медведь
Год выхода: 2009
Жанр: Мультфильм, комедия, семейный
Режиссер: Олег Кузовков, Олег Ужинов, Денис Червяцов
Продюссер: Андрей Добрунов, Дмитрий Ловейко, Олег Кузовков
В ролях: Алина Кукушкина, Борис Кутневич, Эдуард Назаров
Описание фильма:
Маша — невероятно активная девочка, которая никогда не сидит на месте и считает, что весь мир создан для неё одной. Машина индивидуальность не знает границ, поэтому урок труда легко оборачивается строительством парусного корабля, а набор художника — в разукрашивание всего леса.
Страна: Россия
Студия: Анимаккорд
Продолжительность: 05:26:48 (46 x ~ 00:07:00)
Перевод: Оригинал
Субтитры: Отсутствуют

Дата мировой премьеры: 18 ноября 2013
Дата российской премьеры: 7 января 2009
Дата выхода DVD релиза: 19 ноября 2009, «Мистерия Звука»
Дата выхода Blu-Ray релиза: 27 апреля 2010, «Мистерия Звука»
Файл
Формат: MKV
Кодек: MPEG-4 AVC/H.264
Качество: BDRip 720p
Видео: ~ 4000-9000 Кбит/сек, 1280 x 720, 48-60.000 кадров/сек
Аудио#1: AC3 5.1, 48.0 KHz, 448 Кбит/сек - для 48fps и 60fps
Аудио#2: AC3 2, 48.0 KHz, 192 Кбит/сек - для 50fps

Список серий

1. Первая встреча 60fps
2. До весны не будить! 60fps
3. Раз, два, три! Ёлочка, гори! 60fps
4. Весна пришла! 60fps
5. Ловись, рыбка! 60fps
6. Следы невиданных зверей 60fps
7. С волками жить... 60fps
8. Позвони мне,позвони! 60fps
9. День варенья 60fps
10. Праздник на льду 60fps
11. Первый раз в первый класс 60fps
12. Граница на замке 60fps
13. Кто не спрятался, я не виноват! 60fps
14. Лыжню! 60fps
15. Будьте здоровы! 60fps
16. Маша+каша 60fps
17. Дальний родственник 60fps
18. Большая стирка 60fps
19. Репетиция Оркестра! 60fps
20. Усатый - полосатый 48fps
21. Один дома 48fps
22. Дышите! Не дышите! 48fps
23. Подкидыш 48fps
24. Приятного аппетита 48fps
25. Фокус-Покус 48fps
26. Осторожно,ремонт! 48fps
27. Картина маслом 48fps
28. Ход конём! 50fps
29. Хит сезона 50fps
30. Витамин роста 50fps
31. Новая метла 50fps
32. Когда все дома! 50fps
33. Сладкая жизнь! 50fps
34. Фотография 9х12 50fps
35. Трудно быть маленьким! 50fps
36. Двое на одного 50fps
37. Большое путешествие 50fps
38. Нынче всё наоборот! 50fps
39. Сказка на ночь! 60fps
40. Красота - страшная сила 50fps
41. Дело в Шляпе 50fps
42. День Кино 50fps
43. Героями не рождаются! 50fps
44. Раз в году 50fps
45. Запутанная история 50fps
46. Учитель танцев 60fps

MediaInfo 48fps

Общее
Уникальный идентификатор : 209282575806598435590154133111089457167 (0x9D725BA32A198B3BA99EE996CEF4E80F)
Полное имя : F:\Детские\Маша и Медведь\22. Дышите! Не дышите! 48fps.mkv
Формат : Matroska
Версия формата : Version 2
Размер файла : 419 Мбайт
Продолжительность : 7 м. 10 с.
Общий поток : 8162 Кбит/сек
Дата кодирования : UTC 2014-09-07 11:36:51
Программа кодирования : mkvmerge v5.8.0 ('No Sleep / Pillow') built on Sep 2 2012 15:37:04
Библиотека кодирования : libebml v1.2.3 + libmatroska v1.3.0
Видео
Идентификатор : 1
Формат : AVC
Формат/Информация : Advanced Video Codec
Профиль формата : High@L4.1
Параметр CABAC формата : Да
Параметр ReFrames формата : 6 кадров
Идентификатор кодека : V_MPEG4/ISO/AVC
Продолжительность : 7 м. 10 с.
Битрейт : 7551 Кбит/сек
Ширина : 1280 пикселей
Высота : 720 пикселей
Соотношение сторон : 16:9
Режим частоты кадров : Постоянный
Частота кадров : 48,000 кадров/сек
Цветовое пространство : YUV
Субдискретизация насыщенности : 4:2:0
Битовая глубина : 8 бит
Тип развёртки : Прогрессивная
Бит/(Пиксели*Кадры) : 0.171
Размер потока : 387 Мбайт (93%)
Библиотека кодирования : x264 core 125 r2208 d9d2288
Настройки программы : cabac=1 / ref=6 / deblock=1:1:1 / analyse=0x3:0x133 / me=umh / subme=8 / psy=1 / psy_rd=1.00:0.15 / mixed_ref=1 / me_range=20 / chroma_me=1 / trellis=2 / 8x8dct=1 / cqm=0 / deadzone=21,11 / fast_pskip=0 / chroma_qp_offset=-3 / threads=6 / lookahead_threads=1 / sliced_threads=0 / nr=0 / decimate=0 / interlaced=0 / bluray_compat=0 / constrained_intra=0 / bframes=7 / b_pyramid=2 / b_adapt=2 / b_bias=0 / direct=1 / weightb=1 / open_gop=0 / weightp=2 / keyint=480 / keyint_min=48 / scenecut=40 / intra_refresh=0 / rc=crf / mbtree=0 / crf=16.0 / qcomp=0.63 / qpmin=10 / qpmax=51 / qpstep=4 / ip_ratio=1.40 / pb_ratio=1.30 / aq=1:1.20
Default : Да
Forced : Нет
Аудио
Идентификатор : 2
Формат : AC-3
Формат/Информация : Audio Coding 3
Расширение режима : CM (complete main)
Параметр Endianness формата : Big
Идентификатор кодека : A_AC3
Продолжительность : 7 м. 10 с.
Вид битрейта : Постоянный
Битрейт : 448 Кбит/сек
Каналы : 6 каналов
Расположение каналов : Front: L C R, Side: L R, LFE
Частота : 48,0 КГц
Битовая глубина : 16 бит
Метод сжатия : С потерями
Размер потока : 23,0 Мбайт (5%)
Default : Да
Forced : Нет

MediaInfo 50fps

Общее
Уникальный идентификатор : 206558896052318179175394918975007183817 (0x9B65CBDB8A61B8B2B4E82CFA599953C9)
Полное имя : F:\Детские\Маша и Медведь\32. Когда все дома! 50fps.mkv
Формат : Matroska
Версия формата : Version 2
Размер файла : 452 Мбайт
Продолжительность : 6 м. 57 с.
Общий поток : 9074 Кбит/сек
Дата кодирования : UTC 2014-08-31 13:27:54
Программа кодирования : mkvmerge v5.8.0 ('No Sleep / Pillow') built on Sep 2 2012 15:37:04
Библиотека кодирования : libebml v1.2.3 + libmatroska v1.3.0
Видео
Идентификатор : 1
Формат : AVC
Формат/Информация : Advanced Video Codec
Профиль формата : High@L4.1
Параметр CABAC формата : Да
Параметр ReFrames формата : 6 кадров
Идентификатор кодека : V_MPEG4/ISO/AVC
Продолжительность : 6 м. 57 с.
Битрейт : 8702 Кбит/сек
Ширина : 1280 пикселей
Высота : 720 пикселей
Соотношение сторон : 16:9
Режим частоты кадров : Постоянный
Частота кадров : 50,000 кадров/сек
Цветовое пространство : YUV
Субдискретизация насыщенности : 4:2:0
Битовая глубина : 8 бит
Тип развёртки : Прогрессивная
Бит/(Пиксели*Кадры) : 0.189
Размер потока : 433 Мбайт (96%)
Библиотека кодирования : x264 core 125 r2208 d9d2288
Настройки программы : cabac=1 / ref=6 / deblock=0:0:0 / analyse=0x3:0x133 / me=umh / subme=8 / psy=1 / psy_rd=1.00:0.15 / mixed_ref=1 / me_range=20 / chroma_me=1 / trellis=2 / 8x8dct=1 / cqm=0 / deadzone=21,11 / fast_pskip=0 / chroma_qp_offset=-3 / threads=6 / lookahead_threads=1 / sliced_threads=0 / nr=0 / decimate=0 / interlaced=0 / bluray_compat=0 / constrained_intra=0 / bframes=7 / b_pyramid=2 / b_adapt=2 / b_bias=0 / direct=1 / weightb=1 / open_gop=0 / weightp=2 / keyint=480 / keyint_min=48 / scenecut=40 / intra_refresh=0 / rc=crf / mbtree=0 / crf=16.0 / qcomp=0.63 / qpmin=10 / qpmax=51 / qpstep=4 / ip_ratio=1.40 / pb_ratio=1.30 / aq=1:1.20
Default : Да
Forced : Нет
Аудио
Идентификатор : 2
Формат : AC-3
Формат/Информация : Audio Coding 3
Расширение режима : CM (complete main)
Параметр Endianness формата : Big
Идентификатор кодека : A_AC3
Продолжительность : 6 м. 57 с.
Вид битрейта : Постоянный
Битрейт : 192 Кбит/сек
Каналы : 2 канала
Расположение каналов : Front: L R
Частота : 48,0 КГц
Битовая глубина : 16 бит
Метод сжатия : С потерями
Размер потока : 9,56 Мбайт (2%)
Язык : Russian
Default : Да
Forced : Нет

MediaInfo 60fps

Общее
Уникальный идентификатор : 251622664054884054518047340649965955298 (0xBD4CC328A5B7B0CE9A34774E8EC028E2)
Полное имя : F:\Детские\Маша и Медведь\2. До весны не будить! 60fps.mkv
Формат : Matroska
Версия формата : Version 2
Размер файла : 234 Мбайт
Продолжительность : 6 м. 53 с.
Общий поток : 4754 Кбит/сек
Дата кодирования : UTC 2015-02-12 18:20:57
Программа кодирования : mkvmerge v6.1.0 ('Old Devil') built on Mar 4 2013 09:10:42
Библиотека кодирования : libebml v1.3.0 + libmatroska v1.4.0
Видео
Идентификатор : 1
Формат : AVC
Формат/Информация : Advanced Video Codec
Профиль формата : High@L4.1
Параметр CABAC формата : Да
Параметр ReFrames формата : 6 кадров
Идентификатор кодека : V_MPEG4/ISO/AVC
Продолжительность : 6 м. 53 с.
Битрейт : 4211 Кбит/сек
Ширина : 1280 пикселей
Высота : 720 пикселей
Соотношение сторон : 16:9
Режим частоты кадров : Постоянный
Частота кадров : 60,000 кадров/сек
Цветовое пространство : YUV
Субдискретизация насыщенности : 4:2:0
Битовая глубина : 8 бит
Тип развёртки : Прогрессивная
Бит/(Пиксели*Кадры) : 0.076
Размер потока : 208 Мбайт (89%)
Библиотека кодирования : x264 core 130 r2273 b3065e6
Настройки программы : cabac=1 / ref=6 / deblock=1:1:1 / analyse=0x3:0x133 / me=umh / subme=8 / psy=1 / psy_rd=1.00:0.15 / mixed_ref=1 / me_range=20 / chroma_me=1 / trellis=2 / 8x8dct=1 / cqm=0 / deadzone=21,11 / fast_pskip=0 / chroma_qp_offset=-3 / threads=6 / lookahead_threads=2 / sliced_threads=0 / nr=0 / decimate=0 / interlaced=0 / bluray_compat=0 / constrained_intra=0 / bframes=8 / b_pyramid=2 / b_adapt=2 / b_bias=0 / direct=1 / weightb=1 / open_gop=0 / weightp=2 / keyint=250 / keyint_min=25 / scenecut=40 / intra_refresh=0 / rc=crf / mbtree=0 / crf=19.0 / qcomp=0.63 / qpmin=10 / qpmax=51 / qpstep=4 / ip_ratio=1.40 / pb_ratio=1.30 / aq=1:1.20
Default : Да
Forced : Нет
Аудио
Идентификатор : 2
Формат : AC-3
Формат/Информация : Audio Coding 3
Расширение режима : CM (complete main)
Параметр Endianness формата : Big
Идентификатор кодека : A_AC3
Продолжительность : 6 м. 53 с.
Вид битрейта : Постоянный
Битрейт : 448 Кбит/сек
Каналы : 6 каналов
Расположение каналов : Front: L C R, Side: L R, LFE
Частота : 48,0 КГц
Битовая глубина : 16 бит
Метод сжатия : С потерями
Размер потока : 22,1 Мбайт (9%)
Default : Да
Forced : Нет
Скриншоты:

Релиз подготовлен 60 - fps

[Цитировать]
Владимир 1965

Большое спасибо

[Цитировать]
mimok

Владимир 1965, Пожалуйста!

[Цитировать]
MichaelBFG

Приветствую! а обновление будет ?

[Цитировать]
mimok

2339Приветствую! а обновление будет ?
когда появится исходник качественный тогда сделаю.

[Цитировать]
BOT2

Спасибо, пожалуй скачаю! не хочу сам делать:)))
 
Показать сообщения:    

Текущее время: 08-Дек 19:04

Часовой пояс: UTC + 3


Вы не можете начинать темы
Вы не можете отвечать на сообщения
Вы не можете редактировать свои сообщения
Вы не можете удалять свои сообщения
Вы не можете голосовать в опросах
Вы не можете прикреплять файлы к сообщениям
Вы не можете скачивать файлы