[Цитировать]
Kryl

«Верните его домой»- Информация
Название: Марсианин
Оригинальное название: The Martian
Год выхода: 2015
Жанр: фантастика, приключения
Режиссер: Ридли Скотт
Сценарий: Дрю Годдард, Энди Уир
Продюсер: Марк Хаффам, Саймон Кинберг, Майкл Шефер
В ролях: Мэтт Дэймон, Джессика Честейн, Чиветель Эджиофор, Кристен Уиг, Джефф Дэниелс, Майкл Пенья, Шон Бин, Кейт Мара, Себастьян Стэн, Аксель Хенни
--Сюжет:
Марсианская миссия «Арес-3» в процессе работы была вынуждена экстренно покинуть планету из-за надвигающейся песчаной бури. Инженер и биолог Марк Уотни получил повреждение скафандра во время песчаной бури. Сотрудники миссии, посчитав его погибшим, эвакуировались с планеты, оставив Марка одного.
Очнувшись, Уотни обнаруживает, что связь с Землёй отсутствует, но при этом полностью функционирует жилой модуль. Главный герой начинает искать способ продержаться на имеющихся запасах еды, витаминов, воды и воздуха ещё 4 года до прилёта следующей миссии «Арес-4».
- - Страна: США, Великобритания
Продолжительность: 02:21:51

Файл
Кодек: MPEG4/ISO/AVC H.264
Формат: MKV
Качество: WEBRip 720p | 60 fps
Видео: 1280 x 532 (2.406) | 59.940 fps | 7.0 Мбит/сек
Аудио 1: AC3 | 5.1 | 48 kHz | 384 kbps | 16 bit | Дубляж (LINE) |
Аудио 2: AC3 | 5.1 | 48 kHz | 384 kbps | 16 bit | ENG |
Субтитры: Rus, Eng

MedifInfo

Видео
Идентификатор : 1
Формат : AVC
Формат/Информация : Advanced Video Codec
Профиль формата : High@L4.1
Параметр CABAC формата : Да
Параметр ReFrames формата : 3 кадра
Идентификатор кодека : V_MPEG4/ISO/AVC
Продолжительность : 2 ч. 21 м.
Вид битрейта : Переменный
Битрейт : 6818 Кбит/сек
Максимальный битрейт : 7000 Кбит/сек
Ширина : 1280 пикселей
Высота : 532 пикселя
Соотношение сторон : 2,40:1
Режим частоты кадров : Постоянный
Частота кадров : 59,880 кадров/сек
Частота кадров в оригинале : 59,940 кадров/сек
Стандарт вещания : PAL
Цветовое пространство : YUV
Субдискретизация насыщенности : 4:2:0
Битовая глубина : 8 бит
Тип развёртки : Прогрессивная
Бит/(Пиксели*Кадры) : 0.167
Размер потока : 6,76 Гбайт (88%)
Заголовок : www.60-fps.org
Язык : English
Default : Да
Forced : Нет
Основные цвета : BT.601 NTSC
Характеристики трансфера : BT.601
Коэффициенты матрицы : BT.601
colour_range : Limited
Аудио #1
Идентификатор : 2
Формат : AC-3
Формат/Информация : Audio Coding 3
Расширение режима : CM (complete main)
Параметр Endianness формата : Big
Идентификатор кодека : A_AC3
Продолжительность : 2 ч. 21 м.
Вид битрейта : Постоянный
Битрейт : 384 Кбит/сек
Каналы : 2 канала
Расположение каналов : Front: L R
Частота : 48,0 КГц
Битовая глубина : 16 бит
Метод сжатия : С потерями
Размер потока : 390 Мбайт (5%)
Заголовок : Line
Язык : Russian
Default : Да
Forced : Нет
Аудио #2
Идентификатор : 3
Формат : AC-3
Формат/Информация : Audio Coding 3
Расширение режима : CM (complete main)
Параметр Endianness формата : Big
Идентификатор кодека : A_AC3
Продолжительность : 2 ч. 21 м.
Вид битрейта : Постоянный
Битрейт : 384 Кбит/сек
Каналы : 6 каналов
Расположение каналов : Front: L C R, Side: L R, LFE
Частота : 48,0 КГц
Битовая глубина : 16 бит
Метод сжатия : С потерями
Размер потока : 390 Мбайт (5%)
Заголовок : Original
Язык : English
Default : Нет
Forced : Нет
Текст #1
Идентификатор : 4
Формат : UTF-8
Идентификатор кодека : S_TEXT/UTF8
Идентификатор кодека/Информация : UTF-8 Plain Text
Заголовок : RUS
Default : Нет
Forced : Нет
Текст #2
Идентификатор : 5
Формат : UTF-8
Идентификатор кодека : S_TEXT/UTF8
Идентификатор кодека/Информация : UTF-8 Plain Text
Заголовок : ENG
Default : Нет
Forced : Нет
Меню
00:00:00.000 : en:1
00:03:21.000 : en:2
00:10:07.000 : en:3
00:15:22.000 : en:4
00:18:23.000 : en:5
00:21:32.000 : en:6
00:24:25.000 : en:7
00:28:49.000 : en:8
00:31:33.000 : en:9
00:34:18.000 : en:10
00:39:10.000 : en:11
00:41:18.000 : en:12
00:46:19.000 : en:13
00:49:21.000 : en:14
00:56:11.000 : en:15
00:59:35.000 : en:16
01:02:19.000 : en:17
01:06:48.000 : en:18
01:09:47.000 : en:19
01:13:45.000 : en:20
01:18:32.000 : en:21
01:22:46.000 : en:22
01:30:34.000 : en:23
01:37:23.000 : en:24
01:43:24.000 : en:25
01:46:08.000 : en:26
01:50:11.000 : en:27
01:54:00.000 : en:28
01:57:41.000 : en:29
02:04:33.000 : en:30
02:10:56.000 : en:31
02:13:19.000 : en:32

Релиз подготовлен 60 - fps

[Цитировать]
Тимур Артыков

Ждём в Bd 1080p.

[Цитировать]
dadebay

Я только вчера увидел что этот фильм вышел в норм качестве. И вы уже -> 60 fps. Оперативно работаете ребята. Спасибо вам!

[Цитировать]
HANNIBAL_68

Отличный фильм, Спасибо!!!

[Цитировать]
Тимур Артыков

На другом сайте раздал. Качающих много! Спасибо за оперативность

[Цитировать]
izomsk

Спасибо.
Сделал только-что себе 720р 60... а тут уже есть. не успел

[Цитировать]
Kryl

4773Спасибо.
Сделал только-что себе 720р 60... а тут уже есть. не успел
Бывает Улыбаюсь


Последний раз редактировалось: Kryl (2016-01-05 12:29), всего редактировалось 1 раз

[Цитировать]
dzubakr

а когда выходит в BD качестве выходит? что-то интернет это скрывает...

[Цитировать]
phantom-187

Марсианин на br с 12 января

[Цитировать]
dzubakr

4776Марсианин на br с 12 января
спс

[Цитировать]
toolmakerr

Смотрится на одном дыхании. Джессика Честейн бесподобна! Спасибо за качество.

[Цитировать]
gigska11

станьте плс на раздачу!!

[Цитировать]
Krite

Есть шанс, что вместо ВЕБрипа сделают БД? Полно уже в сети БДрипов (даже в 3Д).

[Цитировать]
Kryl

4825Есть шанс, что вместо ВЕБрипа сделают БД? Полно уже в сети БДрипов (даже в 3Д).
Вроде делают уже .
 
Показать сообщения:    

Текущее время: 23-Май 10:01

Часовой пояс: UTC + 3


Вы не можете начинать темы
Вы не можете отвечать на сообщения
Вы не можете редактировать свои сообщения
Вы не можете удалять свои сообщения
Вы не можете голосовать в опросах
Вы не можете прикреплять файлы к сообщениям
Вы не можете скачивать файлы