Market (2016) HD 1080p | 60 fps- Информация
Название: Market
Год выхода: 2016
Жанр: Lesbian, Kissing, Fingering, 69
В ролях: Margot A, Tracy Lindsay
Продолжительность: 00:25:35
Tracy Lindsay and Margot A stroll through the streets of Prague, browsing in the titular “Market,” little smiles and clasped hands hinting at the intimacy of their relationship. Back home, they stretch out on the bed as they feed each other the succulent berries they bought. Tracy licks juice from Margot’s fingers, and their lips meet in a kiss – delicate at first, but quickly growing in intensity. They strip to their underwear as Tracy moves on top of Margot in a sixty-nine, nuzzling her pussy through her flimsy panties. Margot tugs Tracy’s underwear aside to gain access to her juicy pink slot, spreading her open and licking progressively deeper. Meanwhile Tracy is exploring Margot’s sweet folds with her eager tongue and fingers. She arches back to ride Margot’s mouth harder, her fingers busily strumming her girlfriend’s clit. Breaking off to suck and squeeze Margot’s big breasts, Tracy pulls Margot on top of her for another passionate kiss. Margot licks her way down to Tracy’s juiced-up pussy, jamming her fingers inside as she eats her to a powerful climax. When she’s caught her breath Tracy returns the favor, licking a trail down Margot’s body and sucking her pussy until she comes hard. They cuddle up in spoons, hands roaming all over each other as they savor the sweetness together. Be sure to watch right through the closing credits!- Файл
Кодек: MPEG4/ISO/AVC H.264
Формат: MKV
Качество: HD 1080p
Видео: 1920 x 820 (2.341) | 60.000 fps | 15.0 Мбит/сек
Аудио: AC-3 | 2.0 | 48.0 kHz | 128 kbps | 16 bit


Идентификатор : 1
Формат : AVC
Формат/Информация : Advanced Video Codec
Профиль формата : High@L4.2
Параметр CABAC формата : Да
Параметр ReFrames формата : 3 кадра
Идентификатор кодека : V_MPEG4/ISO/AVC
Продолжительность : 25 м.
Вид битрейта : Переменный
Битрейт : 14,1 Мбит/сек
Максимальный битрейт : 15,0 Мбит/сек
Ширина : 1920 пикселей
Высота : 820 пикселей
Соотношение сторон : 2,35:1
Режим частоты кадров : Постоянный
Частота кадров : 60,000 кадров/сек
Стандарт вещания : PAL
Цветовое пространство : YUV
Субдискретизация насыщенности : 4:2:0
Битовая глубина : 8 бит
Тип развёртки : Прогрессивная
Бит/(Пиксели*Кадры) : 0.150
Размер потока : 2,53 Гбайт (97%)
Заголовок : www.60-fps.org
Язык : English
Default : Да
Forced : Нет
Основные цвета : BT.709
Характеристики трансфера : BT.709
Коэффициенты матрицы : BT.709
colour_range : Limited
DURATION : 00:25:34.621000000
NUMBER_OF_BYTES : 24554496
_STATISTICS_WRITING_APP : mkvmerge v7.6.0 ('Garden of Dreams') 32bit built on Feb 8 2015 12:51:39
_STATISTICS_WRITING_DATE_UTC : 2016-07-16 06:00:05
Идентификатор : 2
Формат : AC-3
Формат/Информация : Audio Coding 3
Расширение режима : CM (complete main)
Параметр Endianness формата : Big
Идентификатор кодека : A_AC3
Продолжительность : 25 м.
Вид битрейта : Постоянный
Битрейт : 128 Кбит/сек
Каналы : 2 канала
Расположение каналов : Front: L R
Частота : 48,0 КГц
Битовая глубина : 16 бит
Метод сжатия : С потерями
Задержка видео : 18 мс.
Размер потока : 23,4 Мбайт (1%)
Default : Да
Forced : Нет


Release was prepared by 60 - fps

Display posts:    

Current time is: 27-Oct 02:04

All times are UTC + 3

You cannot post new topics in this forum
You cannot reply to topics in this forum
You cannot edit your posts in this forum
You cannot delete your posts in this forum
You cannot vote in polls in this forum
You cannot attach files in this forum
You cannot download files in this forum