Агент Ева / Ava (2020) BDRip 1080p | 60 fps Танго и Кэш / Tango & Cash (1989) BDRemux 1080p | 60 fps Властелин колец: Трилогия / The Lord of the Rings: Trilogy (2001-2003) BDRip-AVC | Extended Cut | 60 fps Ультрафиолет / Ultraviolet (2006) BDRip 1080p | 60 fps Девушка-невидимка / Shadow Girl (2019) BDRip 720p | 60 fps Не входи / The Owners(2020) BDRip 720p | 60 fps Вивариум / Vivarium (2019) BDRip 720p | 60 fps Где-то во времени / The Fare (2018) BDRip 720p | 60 fps
  1. Longevity:
    6 years 7 months
    Posts:
    2414
    Gender:
    Male
    «Бедные должны быть очень бедными, а богатые должны быть очень богатыми»- Информация
    Название: Мания величия
    Оригинальное название: La folie des grandeurs
    Год выхода: 1971
    Жанр: комедия
    Режиссер: Жерар Ури
    Сценарий: Жерар Ури, Даниель Томпсон, Марсель Жюллиан
    Продюсер: Ален Пуаре
    В ролях: Луи де Фюнес, Ив Монтан, Алис Саприч, Карин Шуберт, Альберто де Мендоса, Дон Хайме де Мора-и-Арагон, Эдуардо Фахардо, Антонио Пика, Хоакин Солис, Венантино Венантини
    --Сюжет:
    Луи Де Фюнес в роли жадного сборщика налогов, обворовывающего короля. Его слугу Рюи Блаза играет Ив Монтан. Разбитной веселый мошенник постоянно издевается над хозяином и строит ему козни.
    Так он использует неописуемую алчность и жажду лести человека, считающего, что «бедные должны быть бедными, а богатые должны стать еще богаче», и подбивает Де Фюнеса соблазнить испанскую королеву, на которую сам положил глаз…
    - Страна: Франция, Испания, Италия, Германия (ФРГ)
    Продолжительность: 01:49:05

    Файл
    Кодек: MPEG4/ISO/AVC/H.264
    Формат: MKV
    Качество: BDRip 720p | 60 fps
    Видео: 1280 x 690 (1.855) | 60.000 fps | 10.0 Мбит/сек
    Аудио 1: AC3 | 2.0 | 48 kHz | 192 kbps | 16 bit | Профессиональный многоголосый закадровый - ТК «TВ Центр» |
    Аудио 2: AC3 | 2.0 | 48 kHz | 192 kbps | 16 bit | Профессиональный многоголосый закадровый - R5 DVD Магия |
    Аудио 3: AC3 | 2.0 | 48 kHz | 192 kbps | 16 bit | Профессиональный многоголосый закадровый - ОРТ |
    Аудио 4: AC3 | 2.0 | 48 kHz | 192 kbps | 16 bit | Профессиональный многоголосый закадровый - украинский Enter-фільм |
    Аудио 5: AC3 | 2.0 | 48 kHz | 192 kbps | 16 bit | FRE |
    Субтитры: Русские, Eng

    MedifInfo

    Видео
    Идентификатор : 1
    Формат : AVC
    Формат/Информация : Advanced Video Codec
    Профиль формата : [email protected]
    Параметр CABAC формата : Да
    Параметр ReFrames формата : 3 кадра
    Параметр GOP формата : M=3, N=72
    Идентификатор кодека : V_MPEG4/ISO/AVC
    Продолжительность : 1 ч. 49 м.
    Вид битрейта : Переменный
    Битрейт : 9604 Кбит/сек
    Максимальный битрейт : 10000 Кбит/сек
    Ширина : 1280 пикселей
    Высота : 690 пикселей
    Соотношение сторон : 1,85:1
    Режим частоты кадров : Постоянный
    Частота кадров : 60,000 кадров/сек
    Стандарт вещания : PAL
    Цветовое пространство : YUV
    Субдискретизация насыщенности : 4:2:0
    Битовая глубина : 8 бит
    Тип развёртки : Прогрессивная
    Бит/(Пиксели*Кадры) : 0.181
    Размер потока : 7,32 Гбайт (89%)
    Заголовок : www.60-fps.org
    Язык : English
    Default : Да
    Forced : Нет
    Основные цвета : BT.709
    Характеристики трансфера : BT.709
    Коэффициенты матрицы : BT.709
    colour_range : Limited
    Аудио #1
    Идентификатор : 2
    Формат : AC-3
    Формат/Информация : Audio Coding 3
    Расширение режима : CM (complete main)
    Параметр Endianness формата : Big
    Идентификатор кодека : A_AC3
    Продолжительность : 1 ч. 49 м.
    Вид битрейта : Постоянный
    Битрейт : 192 Кбит/сек
    Каналы : 2 канала
    Расположение каналов : Front: L R
    Частота : 48,0 КГц
    Битовая глубина : 16 бит
    Метод сжатия : С потерями
    Размер потока : 150 Мбайт (2%)
    Заголовок : ТК «TВ Центр»
    Язык : Russian
    Default : Да
    Forced : Нет
    Аудио #2
    Идентификатор : 3
    Формат : AC-3
    Формат/Информация : Audio Coding 3
    Расширение режима : CM (complete main)
    Параметр Endianness формата : Big
    Идентификатор кодека : A_AC3
    Продолжительность : 1 ч. 49 м.
    Вид битрейта : Постоянный
    Битрейт : 192 Кбит/сек
    Каналы : 2 канала
    Расположение каналов : Front: L R
    Частота : 48,0 КГц
    Битовая глубина : 16 бит
    Метод сжатия : С потерями
    Размер потока : 150 Мбайт (2%)
    Заголовок : R5 DVD Магия
    Язык : Russian
    Default : Нет
    Forced : Нет
    Аудио #3
    Идентификатор : 4
    Формат : AC-3
    Формат/Информация : Audio Coding 3
    Профиль формата : Dolby Digital
    Расширение режима : CM (complete main)
    Параметр Endianness формата : Big
    Идентификатор кодека : A_AC3
    Продолжительность : 1 ч. 49 м.
    Вид битрейта : Постоянный
    Битрейт : 192 Кбит/сек
    Каналы : 2 канала
    Расположение каналов : Front: L R
    Частота : 48,0 КГц
    Битовая глубина : 16 бит
    Метод сжатия : С потерями
    Размер потока : 150 Мбайт (2%)
    Заголовок : ОРТ
    Язык : Russian
    Default : Нет
    Forced : Нет
    Аудио #4
    Идентификатор : 5
    Формат : AC-3
    Формат/Информация : Audio Coding 3
    Расширение режима : CM (complete main)
    Параметр Endianness формата : Big
    Идентификатор кодека : A_AC3
    Продолжительность : 1 ч. 49 м.
    Вид битрейта : Постоянный
    Битрейт : 192 Кбит/сек
    Каналы : 2 канала
    Расположение каналов : Front: L R
    Частота : 48,0 КГц
    Битовая глубина : 16 бит
    Метод сжатия : С потерями
    Размер потока : 150 Мбайт (2%)
    Заголовок : украинский Enter-фільм
    Язык : Ukrainian
    Default : Нет
    Forced : Нет
    Аудио #5
    Идентификатор : 6
    Формат : AC-3
    Формат/Информация : Audio Coding 3
    Расширение режима : CM (complete main)
    Параметр Endianness формата : Big
    Идентификатор кодека : A_AC3
    Продолжительность : 1 ч. 49 м.
    Вид битрейта : Постоянный
    Битрейт : 192 Кбит/сек
    Каналы : 2 канала
    Расположение каналов : Front: L R
    Частота : 48,0 КГц
    Битовая глубина : 16 бит
    Метод сжатия : С потерями
    Размер потока : 150 Мбайт (2%)
    Заголовок : FRE
    Язык : French
    Default : Нет
    Forced : Нет
    Текст #1
    Идентификатор : 7
    Формат : UTF-8
    Идентификатор кодека : S_TEXT/UTF8
    Идентификатор кодека/Информация : UTF-8 Plain Text
    Default : Нет
    Forced : Нет
    Текст #2
    Идентификатор : 8
    Формат : UTF-8
    Идентификатор кодека : S_TEXT/UTF8
    Идентификатор кодека/Информация : UTF-8 Plain Text
    Default : Нет
    Forced : Нет

    Release was prepared by 60-fps.org



You cannot post new topics in this forum
You cannot reply to topics in this forum
You cannot edit your posts in this forum
You cannot delete your posts in this forum
You cannot vote in polls in this forum
You cannot attach files in this forum
You cannot download files in this forum