[Цитировать]
mimok

Малавита / The Family (2013) BDRip 720p | 60fps«Некоторые называют их организованной преступной группировкой. Другие – семьей»- Информация о фильме
Название: Малавита
Оригинальное название: The Family
Год выхода: 2013
Жанр: Криминал, комедия, боевик
Режиссер: Люк Бессон
Продюсер: Люк Бессон, Райан Кэвэна, Виржини Силла
В ролях: Роберт Де Ниро, Мишель Пфайффер, Томми Ли Джонс, Дианна Агрон, Джон Д’Лео, Джон Фреда, Джимми Палумбо, Доменик Ломбардоззи, Стэн Карп, Винсент Пасторе
Описание фильма:
Что вы знаете о своих соседях? Особенно о тех, которые заявляются среди ночи… Так, однажды на тихой улочке провинциального французского городка поселился писатель по фамилии Блейк, со своим семейством и собакой Малавитой. На этом многовековое спокойствие города закончилось. Почему сгорел местный супермаркет? Чем рискует медлительный водопроводчик? Что лежит в рюкзаке у милого парня в бежевых бриджах?
Кто бы мог представить, что на самом деле мистер Блейк — бывший глава мафии, которого власти прячут здесь от преследования. И вот в городок приезжают люди «Коза Ностры»…
Страна: США, Франция
Студия: Relativity Media, EuropaCorp
Продолжительность: 01:51:33
Перевод: Дублированный (Лицензия)
Субтитры: Вшитые, отключаемые
Язык субтитров: Русский (Full), Английский (Full)

Дата мировой премьеры: 10 сентября 2013
Дата российской премьеры: 19 сентября 2013, «Парадиз»
Дата выхода DVD релиза: 19 ноября 2013, «Парадиз / Активижен»
Дата выхода Blu-Ray релиза: 3 декабря 2013, «Парадиз / Активижен»
Файл
Формат: MKV
Кодек: MPEG-4 AVC/H.264
Качество: BDRip 720p
Видео: ~ 5002 Кбит/сек, 1280 x 544, 59.940 кадров/сек
Аудио: AC3 5.1, 48.0 KHz, 640 Кбит/сек - Русский

MediaInfo

Общее
Уникальный идентификатор : 191324184391532473630719960392132294749 (0x8FEFB294A2EC3F7CB20521AEB31D785D)
Полное имя : D:\Торренты\The Family 60fps.mkv
Формат : Matroska
Версия формата : Version 2
Размер файла : 4,49 Гбайт
Продолжительность : 1 ч. 51 м.
Общий поток : 5757 Кбит/сек
Дата кодирования : UTC 2015-04-18 10:47:56
Программа кодирования : mkvmerge v6.9.1 ('Blue Panther') 64bit built on Apr 18 2014 18:23:38
Библиотека кодирования : libebml v1.3.0 + libmatroska v1.4.1
Видео
Идентификатор : 1
Формат : AVC
Формат/Информация : Advanced Video Codec
Профиль формата : High@L4.1
Параметр CABAC формата : Да
Параметр ReFrames формата : 6 кадров
Идентификатор кодека : V_MPEG4/ISO/AVC
Продолжительность : 1 ч. 51 м.
Битрейт : 5002 Кбит/сек
Ширина : 1280 пикселей
Высота : 544 пикселя
Соотношение сторон : 2,35:1
Режим частоты кадров : Постоянный
Частота кадров : 59,880 кадров/сек
Частота кадров в оригинале : 59,940 кадров/сек
Цветовое пространство : YUV
Субдискретизация насыщенности : 4:2:0
Битовая глубина : 8 бит
Тип развёртки : Прогрессивная
Бит/(Пиксели*Кадры) : 0.120
Размер потока : 3,90 Гбайт (87%)
Заголовок : Release by mimok
Библиотека кодирования : x264 core 130 r2273 b3065e6
Настройки программы : cabac=1 / ref=6 / deblock=1:0:0 / analyse=0x3:0x133 / me=umh / subme=8 / psy=1 / psy_rd=1.00:0.15 / mixed_ref=1 / me_range=20 / chroma_me=1 / trellis=2 / 8x8dct=1 / cqm=0 / deadzone=21,11 / fast_pskip=0 / chroma_qp_offset=-3 / threads=6 / lookahead_threads=2 / sliced_threads=0 / nr=0 / decimate=0 / interlaced=0 / bluray_compat=0 / constrained_intra=0 / bframes=8 / b_pyramid=2 / b_adapt=2 / b_bias=0 / direct=1 / weightb=1 / open_gop=0 / weightp=2 / keyint=250 / keyint_min=25 / scenecut=40 / intra_refresh=0 / rc=crf / mbtree=0 / crf=17.5 / qcomp=0.63 / qpmin=10 / qpmax=51 / qpstep=4 / ip_ratio=1.40 / pb_ratio=1.30 / aq=1:1.20
Default : Да
Forced : Нет
Аудио
Идентификатор : 2
Формат : AC-3
Формат/Информация : Audio Coding 3
Расширение режима : CM (complete main)
Параметр Endianness формата : Big
Идентификатор кодека : A_AC3
Продолжительность : 1 ч. 51 м.
Вид битрейта : Постоянный
Битрейт : 640 Кбит/сек
Каналы : 5 каналов
Расположение каналов : Front: L C R, Side: L R
Частота : 48,0 КГц
Битовая глубина : 16 бит
Метод сжатия : С потерями
Размер потока : 511 Мбайт (11%)
Заголовок : Dub
Язык : Russian
Default : Да
Forced : Нет
Текст #1
Идентификатор : 3
Формат : UTF-8
Идентификатор кодека : S_TEXT/UTF8
Идентификатор кодека/Информация : UTF-8 Plain Text
Заголовок : Full
Язык : Russian
Default : Да
Forced : Нет
Текст #2
Идентификатор : 4
Формат : UTF-8
Идентификатор кодека : S_TEXT/UTF8
Идентификатор кодека/Информация : UTF-8 Plain Text
Заголовок : Full, SDH
Язык : English
Default : Нет
Forced : Нет

Скринлист

Скриншоты:

Релиз подготовлен 60 - fps

[60-fps.org].t597.torrent
Торрент: Зарегистрирован [ 2015-04-18 15:09 ] · 8B9300FFA9BB0331DCC26630A450517A72953992

Скачать .torrent

Скачать

23 KB

Статус: проверено
Скачан: 94 раз
Поблагодарили:
Размер: 4,49 GB
 


Последний раз редактировалось: mimok (2016-02-10 08:34), всего редактировалось 1 раз

[Цитировать]
Лилия

Классный фильм! Спасибо!

[Цитировать]
mimok

2409Классный фильм! Спасибо!
Пожалуйста!!!

[Цитировать]
nikatok

Спасибо!!!!

[Цитировать]
sawok90

отличный фильм)
 
Показать сообщения:    

Текущее время: 24-Фев 02:23

Часовой пояс: UTC + 3


Вы не можете начинать темы
Вы не можете отвечать на сообщения
Вы не можете редактировать свои сообщения
Вы не можете удалять свои сообщения
Вы не можете голосовать в опросах
Вы не можете прикреплять файлы к сообщениям
Вы можете скачивать файлы