[Цитировать]
Kryl

«Кровь порождает кровь»- Информация
Название: Макбет
Оригинальное название: Macbeth
Год выхода: 2015
Жанр: драма, военный
Режиссер: Джастин Курзель
Сценарий: Джейкоб Коскофф, Майкл Лессли, Тодд Луисо
Продюсер: Эйн Каннинг, Лаура Гастингс-Смит, Эмиль Шерман
В ролях: Майкл Фассбендер, Марион Котийяр, Пэдди Консидайн, Шон Харрис, Джек Рейнор, Элизабет Дебики, Дэвид Тьюлис, Росс Андерсон, Дэвид Хейман, Морис Роевз
--Сюжет:
Холодные поля Шотландии, военный лагерь, всегда готовый переместиться в другое место. Макбет всегда на войне, его жена, недавно потерявшая ребенка, боится потерять еще и мужа. Чтобы удержать его рядом, она начинает свой проект по устранению конкурентов в борьбе за королевскую корону.- Страна: Великобритания, Франция, США
Продолжительность: 01:52:52

Файл
Кодек: MPEG4/ISO/AVC H.264
Формат: MKV
Качество: BDRip 720p | 60 fps
Видео: 1280 x 534 (2.397) | 60.000 fps | 10.0 Мбит/сек
Аудио 1: AC3 | 2.0 | 48 kHz | 384 kbps | 16 bit | Дубляж Line |
Аудио 2: AC3 | 5.1 | 48 kHz | 384 kbps | 16 bit | ENG |

MedifInfo

Видео
Идентификатор : 1
Формат : AVC
Формат/Информация : Advanced Video Codec
Профиль формата : High@L4.1
Параметр CABAC формата : Да
Параметр ReFrames формата : 3 кадра
Идентификатор кодека : V_MPEG4/ISO/AVC
Продолжительность : 1 ч. 52 м.
Вид битрейта : Переменный
Битрейт : 9640 Кбит/сек
Максимальный битрейт : 10000 Кбит/сек
Ширина : 1280 пикселей
Высота : 534 пикселя
Соотношение сторон : 2,40:1
Режим частоты кадров : Постоянный
Частота кадров : 60,000 кадров/сек
Стандарт вещания : PAL
Цветовое пространство : YUV
Субдискретизация насыщенности : 4:2:0
Битовая глубина : 8 бит
Тип развёртки : Прогрессивная
Бит/(Пиксели*Кадры) : 0.235
Размер потока : 7,60 Гбайт (91%)
Заголовок : www/60-fps.org
Язык : English
Default : Да
Forced : Нет
Основные цвета : BT.601 NTSC
Характеристики трансфера : BT.601
Коэффициенты матрицы : BT.601
colour_range : Limited
Аудио #1
Идентификатор : 2
Формат : AC-3
Формат/Информация : Audio Coding 3
Расширение режима : CM (complete main)
Параметр Endianness формата : Big
Идентификатор кодека : A_AC3
Продолжительность : 1 ч. 52 м.
Вид битрейта : Постоянный
Битрейт : 384 Кбит/сек
Каналы : 2 канала
Расположение каналов : Front: L R
Частота : 48,0 КГц
Битовая глубина : 16 бит
Метод сжатия : С потерями
Размер потока : 310 Мбайт (4%)
Заголовок : Дублированный (Чистый звук - без рекламы)
Язык : Russian
Default : Да
Forced : Нет
Аудио #2
Идентификатор : 3
Формат : AC-3
Формат/Информация : Audio Coding 3
Расширение режима : CM (complete main)
Параметр Endianness формата : Big
Идентификатор кодека : A_AC3
Продолжительность : 1 ч. 52 м.
Вид битрейта : Постоянный
Битрейт : 384 Кбит/сек
Каналы : 6 каналов
Расположение каналов : Front: L C R, Side: L R, LFE
Частота : 48,0 КГц
Битовая глубина : 16 бит
Метод сжатия : С потерями
Размер потока : 310 Мбайт (4%)
Заголовок : ENG
Язык : English
Default : Нет
Forced : Нет
Меню
00:00:00.000 : en:Chapter 01
00:09:44.500 : en:Chapter 02
00:18:19.417 : en:Chapter 03
00:33:11.042 : en:Chapter 04
00:42:30.625 : en:Chapter 05
00:51:18.042 : en:Chapter 06
01:00:19.250 : en:Chapter 07
01:11:23.125 : en:Chapter 08
01:16:26.083 : en:Chapter 09
01:26:24.583 : en:Chapter 10
01:33:59.917 : en:Chapter 11
01:46:27.000 : en:Chapter 12

Релиз подготовлен 60 - fps

[Цитировать]
kaif569

самый лучший день здела 720 60 fps Плачу Умник

[Цитировать]
ENIGMA

Огромное Спасибо!

[Цитировать]
Stips

Спасибо Улыбаюсь
 
Показать сообщения:    

Текущее время: 23-Сен 08:49

Часовой пояс: UTC + 3


Вы не можете начинать темы
Вы не можете отвечать на сообщения
Вы не можете редактировать свои сообщения
Вы не можете удалять свои сообщения
Вы не можете голосовать в опросах
Вы не можете прикреплять файлы к сообщениям
Вы не можете скачивать файлы