[Цитировать]
kamikkadze

Macklemore & Ryan Lewis - Downtown (2015) Master 1080p | 60 fps

Информация о Клипе:
Исполнители: Macklemore & Ryan Lewis
Название: Downtown
Год выпуска: 2015 г.
Жанр: Pop
Продолжительность: 00:05:22

Файл:
Формат видео: MKV
Качество видео: Master 1080p | 60 fps
Видео кодек: H.264
Аудио кодек: AC3
Видео: 1920x784 | 60,000 fps | 27,4 Мбит/сек
Аудио: AC3 | 2 channels | 48 kHz | 448 Кбит/сек

Автор Рипа:

MediaInfo

Видео
Идентификатор : 1
Формат : AVC
Формат/Информация : Advanced Video Codec
Профиль формата : High@L4.1
Параметр CABAC формата : Да
Параметр ReFrames формата : 4 кадра
Идентификатор кодека : V_MPEG4/ISO/AVC
Продолжительность : 5 м. 22 с.
Битрейт : 27,4 Мбит/сек
Ширина : 1920 пикселей
Высота : 784 пикселя
Соотношение сторон : 2,40:1
Режим частоты кадров : Постоянный
Частота кадров : 59,880 кадров/сек
Частота кадров в оригинале : 59,940 кадров/сек
Цветовое пространство : YUV
Субдискретизация насыщенности : 4:2:0
Битовая глубина : 8 бит
Тип развёртки : Прогрессивная
Бит/(Пиксели*Кадры) : 0.304
Размер потока : 1,00 Гбайт (96%)
Заголовок : Macklemore & Ryan Lewis - Downtown « R.G 60-FPS Rip By Kamikkadze »
Default : Да
Forced : Нет
Аудио
Идентификатор : 2
Формат : AC-3
Формат/Информация : Audio Coding 3
Расширение режима : CM (complete main)
Параметр Endianness формата : Big
Идентификатор кодека : A_AC3
Продолжительность : 5 м. 22 с.
Вид битрейта : Постоянный
Битрейт : 448 Кбит/сек
Каналы : 2 канала
Расположение каналов : Front: L R
Частота : 48,0 КГц
Метод сжатия : С потерями
Размер потока : 17,2 Мбайт (2%)
Default : Да
Forced : Нет
Просьба к переливающим на другие сайты, в оформлении указывайте пожалуйста авторство рипа - Kamikkadze

Релиз подготовлен 60 - fps

 
Показать сообщения:    

Текущее время: 10-Дек 19:40

Часовой пояс: UTC + 3


Вы не можете начинать темы
Вы не можете отвечать на сообщения
Вы не можете редактировать свои сообщения
Вы не можете удалять свои сообщения
Вы не можете голосовать в опросах
Вы не можете прикреплять файлы к сообщениям
Вы не можете скачивать файлы