[Цитировать]
Kryl

-Machete - Нежность (2011) Master 720p | 50 fps- --Информация о Клипе
Исполнитель: Machete
Название: Нежность
Год выхода: 2011
Продолжительность: 00:04:32-Файл
Кодек: MPEG4/ISO/AVC/ H.264
Формат: MOV (HDCam)
Качество: Master 720p
Видео: 1280х720 at 50.000 fps 58.4 Мбит/сек
Аудио: PCM | 1536 Кбит/сек | 48.0 KHz | 2 channels
P.S. Тут настоящие 50fps .

MI

General
Format : MPEG-4
Format profile : QuickTime
Codec ID : qt
File size : 1.90 GiB
Duration : 4mn 32s
Overall bit rate : 59.9 Mbps
Encoded date : UTC 2011-04-14 09:19:19
Tagged date : UTC 2011-04-14 09:39:49
Writing library : Apple QuickTime
©TIM : 00:00:00:00
©TSC : 2997
©TSZ : 100
Video
ID : 1
Format : AVC
Format/Info : Advanced Video Codec
Format profile : Main@L4.1
Format settings, CABAC : No
Format settings, ReFrames : 2 frames
Format settings, GOP : N=1
Codec ID : avc1
Codec ID/Info : Advanced Video Coding
Duration : 4mn 32s
Bit rate mode : Variable
Bit rate : 58.4 Mbps
Maximum bit rate : 64 bps
Width : 1 280 pixels
Height : 720 pixels
Display aspect ratio : 16:9
Frame rate mode : Constant
Frame rate : 50.000 fps
Color space : YUV
Chroma subsampling : 4:2:0
Bit depth : 8 bits
Scan type : Progressive
Bits/(Pixel*Frame) : 1.267
Stream size : 1.85 GiB (97%)
Language : English
Encoded date : UTC 2011-04-14 09:19:19
Tagged date : UTC 2011-04-14 09:39:49
Color primaries : BT.709-5, BT.1361, IEC 61966-2-4, SMPTE RP177
Transfer characteristics : BT.709-5, BT.1361
Matrix coefficients : BT.709-5, BT.1361, IEC 61966-2-4 709, SMPTE RP177
Audio
ID : 2
Format : PCM
Format settings, Endianness : Little
Format settings, Sign : Signed
Codec ID : sowt
Duration : 4mn 32s
Bit rate mode : Constant
Bit rate : 1 536 Kbps
Channel(s) : 2 channels
Channel positions : Front: L R
Sampling rate : 48.0 KHz
Bit depth : 16 bits
Stream size : 49.8 MiB (3%)
Language : English
Encoded date : UTC 2011-04-14 09:19:19
Tagged date : UTC 2011-04-14 09:39:49

Релиз подготовлен 60 - fps

 
Показать сообщения:    

Текущее время: 03-Дек 16:40

Часовой пояс: UTC + 3


Вы не можете начинать темы
Вы не можете отвечать на сообщения
Вы не можете редактировать свои сообщения
Вы не можете удалять свои сообщения
Вы не можете голосовать в опросах
Вы не можете прикреплять файлы к сообщениям
Вы не можете скачивать файлы