[Цитировать]
mimok

Люси / Lucy (2014) BDRip 720p | 60fps«Она — ключ к тайнам Вселенной»- Год выпуска: 2014
Производство: Франция / EuropaCorp, Canal+ [fr]
Жанр: Боевик, фантастика-Режиссер: Люк Бессон
Продюсер: Виржини Силла, Марк Шмугер
Актеры: Скарлетт Йоханссон, Морган Фримен, Аналей Типтон, Чхве Мин Сик, Амр Вакид, Мэйсон Ли, Йохан Филип Асбек, Фредерик Чау, Клер Трэн, Жан Оливер Шредер-Описание фильма:
Еще вчера она была просто сексапильной блондинкой, а сегодня — самое опасное и смертоносное создание на планете со сверхъестественными способностями и интеллектом. То, что совсем недавно лучшие умы мира считали фантастической теорией, для нее стало реальностью. И теперь из добычи она превратится в охотницу.-Перевод: Дублированный (Лицензия)
Субтитры: Вшитые,Не отключаемые
Язык субтитров: Русский (Forsed)- -Дата мировой премьеры: 25 июля 2014
Дата российской премьеры: 11 сентября 2014, «UPI»
Дата выхода DVD релиза: 4 декабря 2014, «Двадцатый Век Фокс СНГ»
Дата выхода Blu-Ray релиза: 4 декабря 2014, «Двадцатый Век Фокс СНГ»-Продолжительность: 01:29:20
Качество видео: BDRip 720p-Видеокодек: MPEG-4 AVC/H.264
Битрейт видео: ~ 12,1 Мбит/сек
Размер кадра: 1280 x 544
Аудио: AC3 5.1, 48.0 KHz, 640 Kbps - Русский-

MediaInfo

Общее
Уникальный идентификатор : 197409901842519309017631095981381249739 (0x9483C39DDF90304C84C96E09192BEACB)
Полное имя : D:\Торренты\Lucy 60fps.mkv
Формат : Matroska
Версия формата : Version 2
Размер файла : 8,12 Гбайт
Продолжительность : 1 ч. 29 м.
Общий поток : 13,0 Мбит/сек
Название фильма : Lucy (2014) Blu-Ray CEE Remux 1080p
Дата кодирования : UTC 2014-11-23 14:42:35
Программа кодирования : mkvmerge v6.9.1 ('Blue Panther') 64bit built on Apr 18 2014 18:23:38
Библиотека кодирования : libebml v1.3.0 + libmatroska v1.4.1
Видео
Идентификатор : 1
Формат : AVC
Формат/Информация : Advanced Video Codec
Профиль формата : High@L4.1
Параметр CABAC формата : Да
Параметр ReFrames формата : 6 кадров
Идентификатор кодека : V_MPEG4/ISO/AVC
Продолжительность : 1 ч. 29 м.
Битрейт : 12,1 Мбит/сек
Ширина : 1280 пикселей
Высота : 544 пикселя
Соотношение сторон : 2,35:1
Режим частоты кадров : Постоянный
Частота кадров : 59,880 кадров/сек
Частота кадров в оригинале : 59,940 кадров/сек
Цветовое пространство : YUV
Субдискретизация насыщенности : 4:2:0
Битовая глубина : 8 бит
Тип развёртки : Прогрессивная
Бит/(Пиксели*Кадры) : 0.291
Размер потока : 7,56 Гбайт (93%)
Заголовок : Release by mimok
Библиотека кодирования : x264 core 125 r2208 d9d2288
Настройки программы : cabac=1 / ref=6 / deblock=0:0:0 / analyse=0x3:0x133 / me=umh / subme=8 / psy=1 / psy_rd=1.00:0.15 / mixed_ref=1 / me_range=20 / chroma_me=1 / trellis=2 / 8x8dct=1 / cqm=0 / deadzone=21,11 / fast_pskip=0 / chroma_qp_offset=-3 / threads=6 / lookahead_threads=1 / sliced_threads=0 / nr=0 / decimate=0 / interlaced=0 / bluray_compat=0 / constrained_intra=0 / bframes=8 / b_pyramid=2 / b_adapt=2 / b_bias=0 / direct=1 / weightb=1 / open_gop=0 / weightp=2 / keyint=600 / keyint_min=59 / scenecut=40 / intra_refresh=0 / rc=crf / mbtree=0 / crf=16.0 / qcomp=0.63 / qpmin=10 / qpmax=51 / qpstep=4 / ip_ratio=1.40 / pb_ratio=1.30 / aq=1:1.20
Default : Да
Forced : Нет
Аудио
Идентификатор : 2
Формат : AC-3
Формат/Информация : Audio Coding 3
Расширение режима : CM (complete main)
Параметр Endianness формата : Big
Идентификатор кодека : A_AC3
Продолжительность : 1 ч. 29 м.
Вид битрейта : Постоянный
Битрейт : 640 Кбит/сек
Каналы : 6 каналов
Расположение каналов : Front: L C R, Side: L R, LFE
Частота : 48,0 КГц
Битовая глубина : 16 бит
Метод сжатия : С потерями
Размер потока : 409 Мбайт (5%)
Заголовок : Лицензия!
Язык : Russian
Default : Да
Forced : Нет

Скринлист

Скриншоты:
 
Показать сообщения:    

Текущее время: 24-Май 07:13

Часовой пояс: UTC + 3


Вы не можете начинать темы
Вы не можете отвечать на сообщения
Вы не можете редактировать свои сообщения
Вы не можете удалять свои сообщения
Вы не можете голосовать в опросах
Вы не можете прикреплять файлы к сообщениям
Вы не можете скачивать файлы