VIP

Хищные птицы: Потрясающая история Харли Квинн / Birds of Prey: And the Fantabulous Emancipation of One Harley Quinn (2020) BDRip 1080p | 60 fps Интерстеллар / Interstellar (2014) BDRip 1080p | IMAX Edition | 60fps Доктор Стрэндж / Doctor Strange (2016) BDRip 1080p | 60 fps Остров фантазий / Fantasy Island (2020) BDRip 1080p | 60 fps Джокер / Joker (2019) BDRip 1080p | 60 fps Аватар / Avatar (2009) BDRip 1080p | 60 fps Британский психопат / Avengement (2019) BDRip 1080p | 60 fps Соник в кино / Sonic the Hedgehog (2020) BDRip 1080p | 60 fps
  1. bot

    Longevity:
    6 years
    Posts:
    410
    Gender:
    Unknown
    - «Она — ключ к тайнам Вселенной»- Информация о фильме
    Название: Люси
    Оригинальное название: Lucy
    Год выхода: 2014
    Жанр: Боевик, фантастика
    Режиссер: Люк Бессон
    Сценарий: Люк Бессон
    Продюсер: Виржини Силла, Марк Шмугер
    В ролях: Скарлетт Йоханссон, Морган Фриман, Чхве Мин Сик, Амр Вакед, Джулиан Райнд-Татт, Йохан Филип Асбек, Анали Типтон, Николас Фонгфет, Ян Оливер Шрёдер, Лука Анджелетти
    --О фильме:
    Еще вчера она была просто сексапильной блондинкой, а сегодня — самое опасное и смертоносное создание на планете со сверхъестественными способностями и интеллектом. То, что совсем недавно лучшие умы мира считали фантастической теорией, для нее стало реальностью. И теперь из добычи она превратится в охотницу.- - Страна: США, Франция
    Продолжительность: 01:29:20
    -- Файл
    Кодек: MPEG4/ISO/AVC H.264
    Формат: MKV
    Качество: BDRip 1080p | 60 fps
    Видео: 1920x800 (2.40:1) | at 59,940 fps | 16.1 Мбит/сек
    Аудио 1: DTS | 5.1 | 48 kHz | 755 kbps | 24 bit | Дубляж |
    Аудио 2: DTS-HD | 5.1 | 48 kHz | 1575 kbps | 24 bit | ENG |
    Субтитры: русские (Форсированные), русские (Полные), украинские (Полные), английские (Форсированные), английские (Полные), английские (Полные SDH)

    MedifInfo

    Video
    ID : 1
    Format : AVC
    Format/Info : Advanced Video Codec
    Format profile : High@L4.1
    Format settings, CABAC : Yes
    Format settings, ReFrames : 4 frames
    Codec ID : V_MPEG4/ISO/AVC
    Duration : 1h 29mn
    Bit rate : 16.1 Mbps
    Nominal bit rate : 14.0 Mbps
    Width : 1 920 pixels
    Height : 800 pixels
    Display aspect ratio : 2.40:1
    Frame rate : 59.940 fps
    Color space : YUV
    Chroma subsampling : 4:2:0
    Bit depth : 8 bits
    Scan type : Progressive
    Bits/(Pixel*Frame) : 0.175
    Stream size : 10.1 GiB (86%)
    Writing library : x264 core 146 r2538 121396c
    Encoding settings : cabac=1 / ref=4 / deblock=1:0:0 / analyse=0x3:0x113 / me=umh / subme=9 / psy=1 / psy_rd=1.00:0.10 / mixed_ref=1 / me_range=32 / chroma_me=1 / trellis=2 / 8x8dct=1 / cqm=0 / deadzone=21,11 / fast_pskip=0 / chroma_qp_offset=-3 / threads=12 / lookahead_threads=3 / sliced_threads=0 / nr=0 / decimate=1 / interlaced=0 / bluray_compat=0 / constrained_intra=0 / bframes=16 / b_pyramid=2 / b_adapt=2 / b_bias=0 / direct=3 / weightb=1 / open_gop=0 / weightp=2 / keyint=250 / keyint_min=25 / scenecut=40 / intra_refresh=0 / rc_lookahead=40 / rc=2pass / mbtree=0 / bitrate=14000 / ratetol=1.0 / qcomp=0.60 / qpmin=0 / qpmax=69 / qpstep=4 / cplxblur=20.0 / qblur=0.5 / vbv_maxrate=14000 / vbv_bufsize=14000 / nal_hrd=none / filler=0 / ip_ratio=1.40 / pb_ratio=1.30 / aq=1:1.00
    Language : English
    Default : Yes
    Forced : No
    Audio #1
    ID : 2
    Format : DTS
    Format/Info : Digital Theater Systems
    Codec ID : A_DTS
    Duration : 1h 29mn
    Bit rate mode : Constant
    Bit rate : 755 Kbps
    Channel(s) : 6 channels
    Channel positions : Front: L C R, Side: L R, LFE
    Sampling rate : 48.0 KHz
    Bit depth : 24 bits
    Compression mode : Lossy
    Stream size : 482 MiB (4%)
    Title : ДУбляж
    Language : Russian
    Default : Yes
    Forced : No
    Audio #2
    ID : 3
    Format : DTS
    Format/Info : Digital Theater Systems
    Format profile : MA / Core
    Codec ID : A_DTS
    Duration : 1h 29mn
    Bit rate mode : Variable
    Bit rate : 1 576 Kbps / 1 510 Kbps
    Channel(s) : 6 channels
    Channel positions : Front: L C R, Side: L R, LFE
    Sampling rate : 48.0 KHz
    Bit depth : 24 bits
    Compression mode : Lossless / Lossy
    Language : English
    Default : No
    Forced : No
    Text #1
    ID : 4
    Format : UTF-8
    Codec ID : S_TEXT/UTF8
    Codec ID/Info : UTF-8 Plain Text
    Title : Форсированные
    Language : Russian
    Default : Yes
    Forced : No
    Text #2
    ID : 5
    Format : UTF-8
    Codec ID : S_TEXT/UTF8
    Codec ID/Info : UTF-8 Plain Text
    Title : Полные
    Language : Russian
    Default : No
    Forced : No
    Text #3
    ID : 6
    Format : UTF-8
    Codec ID : S_TEXT/UTF8
    Codec ID/Info : UTF-8 Plain Text
    Title : Полные
    Language : Ukrainian
    Default : No
    Forced : No
    Text #4
    ID : 7
    Format : UTF-8
    Codec ID : S_TEXT/UTF8
    Codec ID/Info : UTF-8 Plain Text
    Title : Форсированные
    Language : English
    Default : No
    Forced : No
    Text #5
    ID : 8
    Format : UTF-8
    Codec ID : S_TEXT/UTF8
    Codec ID/Info : UTF-8 Plain Text
    Title : Полные
    Language : English
    Default : No
    Forced : No
    Text #6
    ID : 9
    Format : UTF-8
    Codec ID : S_TEXT/UTF8
    Codec ID/Info : UTF-8 Plain Text
    Title : Полные SDH
    Language : English
    Default : No
    Forced : No
    Menu
    00:00:00.000 : :Chapter 01
    00:05:26.367 : :Chapter 02
    00:08:38.267 : :Chapter 03
    00:15:45.903 : :Chapter 04
    00:21:36.295 : :Chapter 05
    00:26:05.397 : :Chapter 06
    00:30:27.534 : :Chapter 07
    00:37:36.254 : :Chapter 08
    00:41:43.459 : :Chapter 09
    00:47:32.558 : :Chapter 10
    00:50:10.716 : :Chapter 11
    00:55:32.495 : :Chapter 12
    00:59:36.072 : :Chapter 13
    01:02:08.099 : :Chapter 14
    01:04:51.345 : :Chapter 15
    01:07:14.030 : :Chapter 16
    01:09:55.816 : :Chapter 17
    01:12:26.133 : :Chapter 18
    01:18:50.600 : :Chapter 19
    01:22:31.571 : :Chapter 20
    01:29:20.146 : :Chapter 21
  2. Longevity:
    3 years 9 months
    Posts:
    1
    Gender:
    Unknown
    Нет звука!
  3. Longevity:
    6 years
    Posts:
    2419
    Gender:
    Male
    7371Нет звука!
    Скачал: [ 37 ] - у них есть звук , а у вас нету ))))
    кодеки обновите на компе . или же ваше оборудование не поддерживает DTS .
    11-Feb-2017 22:13 (after 39 minutes)
  4. Longevity:
    3 years 1 month
    Posts:
    2
    Gender:
    Unknown
    Админ почему ты не сделал этот фильм в 60 FPS? или это качества тебе нравился?
    12-Sep-2017 12:49 (after 7 months)
  5. Longevity:
    4 years 2 months
    Posts:
    1550
    Gender:
    Male
    timefight, ты сам то хоть понял,что написал ?
    12-Sep-2017 13:50 (after 1 hour 1 minute)
  6. Longevity:
    6 years
    Posts:
    2419
    Gender:
    Male
    8485timefight, ты сам то хоть понял,что написал ?
    Смеюсь Смеюсь Смеюсь
    12-Sep-2017 14:34 (after 43 minutes)


You cannot post new topics in this forum
You cannot reply to topics in this forum
You cannot edit your posts in this forum
You cannot delete your posts in this forum
You cannot vote in polls in this forum
You cannot attach files in this forum
You cannot download files in this forum