Властелин колец: Трилогия / The Lord of the Rings: Trilogy (2001-2003) BDRip-AVC | Extended Cut | 60 fps Принц Персии: Пески времени / Prince of Persia: The Sands of Time (2010) BDRip 1080p | 60 fps К звёздам / Ad Astra (2019) BDRip 1080p | 60 fps Достать ножи / Knives Out (2019) BDRip 1080p | 60 fps Удивительное путешествие доктора Дулиттла / Dolittle (2020) BDRip 1080p | 60 fps 21 мост / 21 Bridges (2019) BDRip 1080p | 60 fps День, когда Земля остановилась / The Day the Earth Stood Still (2008) BDRip 1080p | 60 fps Паразиты / Gisaengchung (2019) BDRip 1080p | 60 fps
  1. Longevity:
    4 years 1 month
    Posts:
    1517
    Gender:
    Male
    Фильм «Хорошие парни носят чёрное» Фильм- Информация
    Название: Люди в черном 2
    Оригинальное название: Men in Black II
    Год выхода: 2002
    Жанр: фантастика, боевик, комедия, детектив, приключения
    Режиссер: Барри Зонненфельд
    Сценарий: Роберт Гордон, Бэрри Фэнаро, Лоуэлл Каннингем
    Продюсер: Лори МакДональд, Уолтер Ф. Паркс, Марк Хеймс,
    В ролях: Томми Ли Джонс,Уилл Смит,Лара Флинн Бойл,Джонни Ноксвил,Розарио Доусон,Тони Шэлуб,Рип Торн,Патрик Варбертон,Джек Келер,Дэвид Кросс
    --Сюжет:
    Много лет назад лучший агент организации «Люди в черном» Кей получил задание особой важности. Ему поручили надёжно спрятать таинственный космический артефакт «Светоч». Проходит 25 лет и на Землю прилетает уничтожительница миров Серлина. Приняв образ сексапильной фотомодели, она начала поиски «Светоча». Чтобы не дать ни единого шанса Серлине артефакт нужно отыскать раньше неё, но есть одна проблема — после того как агенты Кей и Джей уничтожили четыре года назад хищного инопланетного таракана, Кею стёрли память. Теперь он мирно трудится в Почтовом департаменте. У него нет даже малейшего воспоминания о своём прошлом, и Джею, для спасения мира, во чтобы то ни стало нужно найти способ восстановить его память.-- Страна: США
    Продолжительность: 01:28:08

    Файл
    Кодек: MPEG4/ISO/AVC H.264
    Формат: MKV
    Качество: BDRip 1080p | 60 fps
    Видео: 1920 x 1040 (1.846) | 59.940 fps | 10,7 Мбит/сек
    Аудио 1: AC-3 | 5.1 | 48 kHz | 640 Кбит/сек | 16 bit | Дубляж |
    Аудио 2: AC-3 | 5.1 | 48 kHz | 640 Кбит/сек | 16 bit | Оригинал |
    Субтитры: Russian,English

    MedifInfo

    Видео
    Идентификатор : 1
    Формат : AVC
    Формат/Информация : Advanced Video Codec
    Профиль формата : High@L4.1
    Параметр CABAC формата : Да
    Параметр ReFrames формата : 4 кадра
    Идентификатор кодека : V_MPEG4/ISO/AVC
    Продолжительность : 1 ч. 28 м.
    Битрейт : 10,7 Мбит/сек
    Ширина : 1920 пикселей
    Высота : 1040 пикселей
    Соотношение сторон : 1,85:1
    Режим частоты кадров : Постоянный
    Частота кадров : 59,940 (59940/1000) кадров/сек
    Цветовое пространство : YUV
    Субдискретизация насыщенности : 4:2:0
    Битовая глубина : 8 бит
    Тип развёртки : Прогрессивная
    Бит/(Пиксели*Кадры) : 0.089
    Размер потока : 6,57 Гбайт (89%)
    Библиотека кодирования : x264 core 130 r2273 b3065e6
    Настройки программы : cabac=1 / ref=4 / deblock=1:-1:-1 / analyse=0x3:0 / me=umh / subme=9 / psy=1 / psy_rd=1.00:0.10 / mixed_ref=1 / me_range=24 / chroma_me=0 / trellis=1 / 8x8dct=1 / cqm=0 / deadzone=21,11 / fast_pskip=0 / chroma_qp_offset=-3 / threads=12 / lookahead_threads=1 / sliced_threads=0 / nr=0 / decimate=0 / interlaced=0 / bluray_compat=0 / constrained_intra=0 / bframes=5 / b_pyramid=2 / b_adapt=2 / b_bias=0 / direct=1 / weightb=1 / open_gop=0 / weightp=2 / keyint=599 / keyint_min=59 / scenecut=40 / intra_refresh=0 / rc=crf / mbtree=0 / crf=18.0 / qcomp=0.60 / qpmin=0 / qpmax=69 / qpstep=4 / ip_ratio=1.40 / pb_ratio=1.30 / aq=1:0.90
    Язык : English
    Default : Да
    Forced : Нет
    Аудио #1
    Идентификатор : 2
    Формат : AC-3
    Формат/Информация : Audio Coding 3
    Расширение режима : CM (complete main)
    Параметр Endianness формата : Big
    Идентификатор кодека : A_AC3
    Продолжительность : 1 ч. 28 м.
    Вид битрейта : Постоянный
    Битрейт : 640 Кбит/сек
    Каналы : 6 каналов
    Расположение каналов : Front: L C R, Side: L R, LFE
    Частота : 48,0 КГц
    Частота кадров : 31,250 кадров/сек (1536 spf)
    Битовая глубина : 16 бит
    Метод сжатия : С потерями
    Размер потока : 403 Мбайт (5%)
    Заголовок : Dub
    Язык : Russian
    Default : Да
    Forced : Нет
    Аудио #2
    Идентификатор : 3
    Формат : AC-3
    Формат/Информация : Audio Coding 3
    Расширение режима : CM (complete main)
    Параметр Endianness формата : Big
    Идентификатор кодека : A_AC3
    Продолжительность : 1 ч. 28 м.
    Вид битрейта : Постоянный
    Битрейт : 640 Кбит/сек
    Каналы : 6 каналов
    Расположение каналов : Front: L C R, Side: L R, LFE
    Частота : 48,0 КГц
    Частота кадров : 31,250 кадров/сек (1536 spf)
    Битовая глубина : 16 бит
    Метод сжатия : С потерями
    Размер потока : 403 Мбайт (5%)
    Заголовок : Original
    Язык : English
    Default : Нет
    Forced : Нет
    Текст #1
    Идентификатор : 4
    Формат : UTF-8
    Идентификатор кодека : S_TEXT/UTF8
    Идентификатор кодека/Информация : UTF-8 Plain Text
    Продолжительность : 43 м. 55 с.
    Битрейт : 1 бит/сек
    Count of elements : 11
    Размер потока : 401 байт (0%)
    Заголовок : Forced
    Язык : Russian
    Default : Да
    Forced : Нет
    Текст #2
    Идентификатор : 5
    Формат : UTF-8
    Идентификатор кодека : S_TEXT/UTF8
    Идентификатор кодека/Информация : UTF-8 Plain Text
    Продолжительность : 1 ч. 20 м.
    Битрейт : 115 бит/сек
    Count of elements : 1040
    Размер потока : 67,6 Кбайт (0%)
    Заголовок : Full
    Язык : Russian
    Default : Нет
    Forced : Нет
    Текст #3
    Идентификатор : 6
    Формат : UTF-8
    Идентификатор кодека : S_TEXT/UTF8
    Идентификатор кодека/Информация : UTF-8 Plain Text
    Продолжительность : 1 ч. 24 м.
    Битрейт : 70 бит/сек
    Count of elements : 1158
    Размер потока : 43,4 Кбайт (0%)
    Заголовок : Full
    Язык : English
    Default : Нет
    Forced : Нет
    Меню
    00:00:00.000 : en:00:00:00.000
    00:07:01.129 : en:00:07:01.129
    00:13:20.716 : en:00:13:20.716
    00:19:05.936 : en:00:19:05.936
    00:24:23.170 : en:00:24:23.170
    00:30:41.256 : en:00:30:41.256
    00:34:59.388 : en:00:34:59.388
    00:41:55.596 : en:00:41:55.596
    00:48:13.974 : en:00:48:13.974
    00:52:32.858 : en:00:52:32.858
    00:57:32.824 : en:00:57:32.824
    01:02:34.125 : en:01:02:34.125
    01:06:20.434 : en:01:06:20.434
    01:10:30.059 : en:01:10:30.059
    01:13:54.847 : en:01:13:54.847
    01:16:02.474 : en:01:16:02.474


You cannot post new topics in this forum
You cannot reply to topics in this forum
You cannot edit your posts in this forum
You cannot delete your posts in this forum
You cannot vote in polls in this forum
You cannot attach files in this forum
You cannot download files in this forum