[Цитировать]
mimok

Люди Икс: Дни минувшего будущего / X-Men: Days of Future Past (2014) BDRip 720р | 60fps«Где угодно. Когда угодно. Мгновенно» Год выпуска: 2014
Производство: США, Великобритания / 20th Century Fox Film Corporation, Marvel Entertainment
Жанр: Фантастика, Боевик, Триллер, Приключения
Режиссер: Брайан Сингер
Продюсер: Саймон Кинберг, Хатч Паркер, Лорен Шулер Доннер
Актеры: Хью Джекман, Джеймс МакЭвой, Майкл Фассбендер, Дженнифер Лоуренс, Холли Берри, Николас Холт, Анна Пэкуин, Эллен Пейдж, Питер Динклэйдж, Шон Эшмор
Описание фильма:
В недалёком будущем мутанты близки к истреблению роботами-охотниками на мутантов Стражами. Единственная надежда для мутантов выжить — предотвратить череду роковых событий, приведших к появлению Стражей. С помощью своих способностей, Китти Прайд перемещает сознание Росомахи в его молодое тело в 1973 год. В прошлом всё оказывается не так радужно: молодой Профессор Икс окончательно разочарован в своих идеях, Магнето содержится в тюрьме глубоко под землёй, а человечество не знает как реагировать на широкое появление мутантов…
Перевод: Дублированный (Лицензия)
Субтитры: Вшитые, не отключаемые
Язык субтитров: Русский (Forsed)

Дата мировой премьеры: 10 мая 2014, США Нью-Йорк
Дата российской премьеры: 22 мая 2014, «Двадцатый Век Фокс СНГ»
Дата выхода DVD релиза: 2 октября 2014, «Двадцатый Век Фокс СНГ»
Дата выхода Blu-Ray релиза: 2 октября 2014, «Двадцатый Век Фокс СНГ»
Продолжительность: 02:11:35
Качество видео: BDRip 720p
Видеокодек: MPEG-4 AVC/H.264
Битрейт видео: ~ 10.9 Мбит/сек
Размер кадра: 1280 x 544
Аудио: AC3 5.1, 48.0 KHz, 640 Kbps - Русский

MediaInfo

General
Unique ID : 198777602752701970232485478631414729044 (0x958B2C7A52926A75A0A070FB55648954)
Complete name : D:\Торренты\X-Men. Days of Future Past 60fps.mkv
Format : Matroska
Format version : Version 2
File size : 11.6 GiB
Duration : 2h 11mn
Overall bit rate : 12.6 Mbps
Movie name : X-Men: Days of Future Past (2014) Blu-ray CEE 1080p AVC DTS 5.1
Encoded date : UTC 2014-10-05 18:03:26
Writing application : mkvmerge v6.9.1 ('Blue Panther') 64bit built on Apr 18 2014 18:23:38
Writing library : libebml v1.3.0 + libmatroska v1.4.1
Video
ID : 1
Format : AVC
Format/Info : Advanced Video Codec
Format profile : High@L4.1
Format settings, CABAC : Yes
Format settings, ReFrames : 6 frames
Codec ID : V_MPEG4/ISO/AVC
Duration : 2h 11mn
Bit rate : 10.9 Mbps
Width : 1 280 pixels
Height : 544 pixels
Display aspect ratio : 2.35:1
Frame rate mode : Constant
Frame rate : 59.880 fps
Original frame rate : 59.940 fps
Color space : YUV
Chroma subsampling : 4:2:0
Bit depth : 8 bits
Scan type : Progressive
Bits/(Pixel*Frame) : 0.262
Stream size : 10.0 GiB (87%)
Title : Release by mimok
Writing library : x264 core 125 r2208 d9d2288
Encoding settings : cabac=1 / ref=6 / deblock=0:0:0 / analyse=0x3:0x133 / me=umh / subme=8 / psy=1 / psy_rd=1.00:0.15 / mixed_ref=1 / me_range=20 / chroma_me=1 / trellis=2 / 8x8dct=1 / cqm=0 / deadzone=21,11 / fast_pskip=0 / chroma_qp_offset=-3 / threads=6 / lookahead_threads=1 / sliced_threads=0 / nr=0 / decimate=0 / interlaced=0 / bluray_compat=0 / constrained_intra=0 / bframes=7 / b_pyramid=2 / b_adapt=2 / b_bias=0 / direct=1 / weightb=1 / open_gop=0 / weightp=2 / keyint=600 / keyint_min=59 / scenecut=40 / intra_refresh=0 / rc=crf / mbtree=0 / crf=16.0 / qcomp=0.63 / qpmin=10 / qpmax=51 / qpstep=4 / ip_ratio=1.40 / pb_ratio=1.30 / aq=1:1.20
Default : Yes
Forced : No
Audio
ID : 2
Format : AC-3
Format/Info : Audio Coding 3
Mode extension : CM (complete main)
Format settings, Endianness : Big
Codec ID : A_AC3
Duration : 2h 11mn
Bit rate mode : Constant
Bit rate : 640 Kbps
Channel(s) : 6 channels
Channel positions : Front: L C R, Side: L R, LFE
Sampling rate : 48.0 KHz
Bit depth : 16 bits
Compression mode : Lossy
Stream size : 602 MiB (5%)
Title : Лицензия, 640кбс
Language : Russian
Default : Yes
Forced : No
Скриншоты:

Релиз подготовлен 60 - fps



Последний раз редактировалось: mimok (2016-03-06 21:23), всего редактировалось 3 раз(а)

[Цитировать]
Sydney

Станьте на раздачу кто нибудь!!!!!
 
Показать сообщения:    

Текущее время: 08-Дек 08:59

Часовой пояс: UTC + 3


Вы не можете начинать темы
Вы не можете отвечать на сообщения
Вы не можете редактировать свои сообщения
Вы не можете удалять свои сообщения
Вы не можете голосовать в опросах
Вы не можете прикреплять файлы к сообщениям
Вы не можете скачивать файлы