-Название: Люди Икс: Дни минувшего будущего
Оригинальное название: X-Men: Days of Future Past
Год выпуска: 2014
Страна: США, Великобритания
Жанр: фантастика, боевик, триллер, приключения
Продолжительность: 02:11:35
Перевод: Дубляж
Субтитры: русские (Форсированные), русские (Полные), английские (Форсированные), английские (Полные)-Режиссер: Брайан Сингер / Bryan Singer-В ролях: Хью Джекман (Logan / Wolverine), Джеймс МакЭвой (Charles Xavier), Майкл Фассбендер (Erik Lehnsherr), Дженнифер Лоуренс (Raven / Mystique), Холли Берри (Storm), Николас Холт (Hank / Beast), Анна Пэкуин (Rogue), Эллен Пейдж (Kitty Pryde), Питер Динклэйдж (Dr. Bolivar Trask), Шон Эшмор (Bobby / Iceman), Омар Си (Bishop), Эван Питерс (Peter / Quicksilver)-Описание:
В недалёком будущем мутанты близки к истреблению роботами-охотниками на мутантов Стражами. Единственная надежда для мутантов выжить - предотвратить череду роковых событий, приведших к появлению Стражей. С помощью своих способностей, Китти Прайд перемещает сознание Росомахи в его молодое тело в 1973 год. В прошлом всё оказывается не так радужно: молодой Профессор Икс окончательно разочарован в своих идеях, Магнето содержится в тюрьме глубоко под землёй, а человечество не знает как реагировать на широкое появление мутантов...-Рейтинг

imdb.com: 8.20 (254 065)
MPAA: PG-13 - Детям до 13 лет просмотр не желателен-Качество: 3D BDRip 1080p / 60 FPS
Формат: MKV
Видео кодек: AVC
Аудио кодек:AC3, DTS
Видео: AVC, 1920x800, 16000 kbps, 59,940 fps
Аудио №1: русский / AC3 / 5.1 / 48 kHz / 640 kbps / 16 bit |Дубляж|
Аудио №2: английский / AC3 / 5.1 / 48 kHz / 640 kbps / 16 bit
Аудио №3: русский / DTS / 5.1 / 48 kHz / 755 kbps / 24 bit |Дубляж|
Навигация по главам: есть- -

MI

General
Unique ID : 244925958647830574760808286847365391841 (0xB84306173782054E894608F8DF75A5E1)
Complete name : A:1080p 60fpsЛюди Икс дни минувшего будущего 3D 1080p 60fps.mkv
Format : Matroska
Format version : Version 4 / Version 2
File size : 16.6 GiB
Duration : 2h 11mn
Overall bit rate : 18.1 Mbps
Encoded date : UTC 2014-10-14 12:52:56
Writing application : mkvmerge v6.9.1 ('Blue Panther') 64bit built on Apr 18 2014 18:23:38
Writing library : libebml v1.3.0 + libmatroska v1.4.1
Video
ID : 1
Format : AVC
Format/Info : Advanced Video Codec
Format profile : High@L4.1
Format settings, CABAC : Yes
Format settings, ReFrames : 4 frames
Codec ID : V_MPEG4/ISO/AVC
Duration : 2h 11mn
Bit rate : 16.0 Mbps
Width : 1 920 pixels
Height : 800 pixels
Display aspect ratio : 2.40:1
Frame rate : 59.940 fps
Color space : YUV
Chroma subsampling : 4:2:0
Bit depth : 8 bits
Scan type : Progressive
Bits/(Pixel*Frame) : 0.174
Stream size : 14.4 GiB (87%)
Writing library : x264 core 130 r2273 b3065e6
Encoding settings : cabac=1 / ref=4 / deblock=1:-1:-1 / analyse=0x3:0 / me=umh / subme=9 / psy=1 / psy_rd=1.00:0.00 / mixed_ref=1 / me_range=44 / chroma_me=0 / trellis=2 / 8x8dct=1 / cqm=0 / deadzone=21,11 / fast_pskip=0 / chroma_qp_offset=-2 / threads=12 / lookahead_threads=1 / sliced_threads=0 / nr=0 / decimate=0 / interlaced=0 / bluray_compat=0 / constrained_intra=0 / bframes=5 / b_pyramid=2 / b_adapt=2 / b_bias=0 / direct=3 / weightb=1 / open_gop=0 / weightp=2 / keyint=250 / keyint_min=59 / scenecut=40 / intra_refresh=0 / rc_lookahead=60 / rc=2pass / mbtree=1 / bitrate=16000 / ratetol=1.0 / qcomp=0.80 / qpmin=0 / qpmax=69 / qpstep=4 / cplxblur=20.0 / qblur=0.5 / ip_ratio=1.40 / aq=1:0.80
Language : English
Default : Yes
Forced : No
Audio #1
ID : 2
Format : AC-3
Format/Info : Audio Coding 3
Mode extension : CM (complete main)
Codec ID : A_AC3
Duration : 2h 11mn
Bit rate mode : Constant
Bit rate : 640 Kbps
Channel(s) : 6 channels
Channel positions : Front: L C R, Side: L R, LFE
Sampling rate : 48.0 KHz
Bit depth : 16 bits
Compression mode : Lossy
Stream size : 602 MiB (4%)
Title : Дубляж
Language : Russian
Default : Yes
Forced : No
Audio #2
ID : 3
Format : AC-3
Format/Info : Audio Coding 3
Mode extension : CM (complete main)
Codec ID : A_AC3
Duration : 2h 11mn
Bit rate mode : Constant
Bit rate : 640 Kbps
Channel(s) : 6 channels
Channel positions : Front: L C R, Side: L R, LFE
Sampling rate : 48.0 KHz
Bit depth : 16 bits
Compression mode : Lossy
Stream size : 602 MiB (4%)
Title : Оригинал
Language : English
Default : No
Forced : No
Audio #3
ID : 4
Format : DTS
Format/Info : Digital Theater Systems
Codec ID : A_DTS
Duration : 2h 11mn
Bit rate mode : Constant
Bit rate : 755 Kbps
Channel(s) : 6 channels
Channel positions : Front: L C R, Side: L R, LFE
Sampling rate : 48.0 KHz
Bit depth : 24 bits
Compression mode : Lossy
Stream size : 710 MiB (4%)
Title : Дубляж
Language : Russian
Default : No
Forced : No
Text #1
ID : 5
Format : UTF-8
Codec ID : S_TEXT/UTF8
Codec ID/Info : UTF-8 Plain Text
Title : Форсированные
Language : Russian
Default : Yes
Forced : No
Text #2
ID : 6
Format : UTF-8
Codec ID : S_TEXT/UTF8
Codec ID/Info : UTF-8 Plain Text
Title : Полные
Language : Russian
Default : No
Forced : No
Text #3
ID : 7
Format : UTF-8
Codec ID : S_TEXT/UTF8
Codec ID/Info : UTF-8 Plain Text
Title : Форсированные
Language : English
Default : No
Forced : No
Text #4
ID : 8
Format : UTF-8
Codec ID : S_TEXT/UTF8
Codec ID/Info : UTF-8 Plain Text
Title : Полные
Language : English
Default : No
Forced : No
Menu
00:00:00.000 : en:1
00:03:33.000 : en:2
00:08:00.000 : en:3
00:10:28.000 : en:4
00:13:57.000 : en:5
00:17:01.000 : en:6
00:20:14.000 : en:7
00:22:10.000 : en:8
00:26:36.000 : en:9
00:30:30.000 : en:10
00:34:27.000 : en:11
00:35:58.000 : en:12
00:38:15.000 : en:13
00:40:34.000 : en:14
00:45:51.000 : en:15
00:48:50.000 : en:16
00:51:55.000 : en:17
00:54:39.000 : en:18
00:57:47.000 : en:19
01:00:44.000 : en:20
01:03:22.000 : en:21
01:07:05.000 : en:22
01:09:39.000 : en:23
01:13:07.000 : en:24
01:15:27.000 : en:25
01:17:23.000 : en:26
01:19:25.000 : en:27
01:24:45.000 : en:28
01:26:53.000 : en:29
01:30:58.000 : en:30
01:33:58.000 : en:31
01:37:27.000 : en:32
01:41:48.000 : en:33
01:44:46.000 : en:34
01:47:13.000 : en:35
01:51:23.000 : en:36
01:56:35.000 : en:37
02:00:05.000 : en:38
02:02:27.000 : en:39
02:10:24.000 : en:40

Скриншоты

 
Показать сообщения:    

Текущее время: 24-Май 07:15

Часовой пояс: UTC + 3


Вы не можете начинать темы
Вы не можете отвечать на сообщения
Вы не можете редактировать свои сообщения
Вы не можете удалять свои сообщения
Вы не можете голосовать в опросах
Вы не можете прикреплять файлы к сообщениям
Вы не можете скачивать файлы