VIP

1917 / 1917 (2019) BDRip 1080p | 60 fps Звёздные войны: Скайуокер. Восход / Star Wars: Episode IX - The Rise of Skywalker (2019) BDRip 1080p | 60 fps Плохие парни навсегда / Bad Boys for Life (2019) BDRip 1080p | 60 fps Интерстеллар / Interstellar (2014) BDRip 1080p | IMAX Edition | 60fps Хищные птицы: Потрясающая история Харли Квинн / Birds of Prey: And the Fantabulous Emancipation of One Harley Quinn (2020) BDRip 1080p | 60 fps Джентльмены / The Gentlemen (2019) BDRip 1080p | 60 fps Доктор Стрэндж / Doctor Strange (2016) BDRip 1080p | 60 fps Остров фантазий / Fantasy Island (2020) BDRip 1080p | 60 fps
  1. Longevity:
    5 years 11 months
    Posts:
    2419
    Gender:
    Male
    «Выживет сильнейший»- Информация
    Название: Люди Икс: Апокалипсис
    Оригинальное название: X-Men: Apocalypse
    Год выхода: 2016
    Жанр: фантастика, фэнтези, боевик, приключения
    Режиссер: Брайан Сингер
    Сценарий: Саймон Кинберг, Брайан Сингер, Майкл Догерти
    Продюсер: Саймон Кинберг, Хатч Паркер, Лорен Шулер Доннер
    В ролях: Майкл Фассбендер, Дженнифер Лоуренс, Джеймс МакЭвой, Эван Питерс, Николас Хоулт, Ченнинг Татум, Оскар Айзек, Александра Шипп, Тай Шеридан, Софи Тернер, Лана Кондор, Оливия Манн, Роуз Бирн, Хью Джекмен, Коди Смит-МакФи, Брендан Педдер
    --Сюжет:

    События «Дней Минувшего Будущего» оказали колоссальное влияние на мир, где мутанты и люди борются за свое место под Солнцем. В это нелегкое время Людям Икс предстоит столкнуться со своим самым опасным противником — древним мутантом Апокалипсисом, существом, схватка с которым может стать последней не только для мутантов, но и в принципе для всего человечества. В поисках способа победы над неуязвимым и бессмертным монстром Людям Икс предстоит узнать больше о происхождении своего вида. Но Апокалипсис неимоверно силен, и вероятность победы все уменьшается, ведь он твердо убежден, что только сильнейшие имеют право на выживание…
    - Страна: США
    Продолжительность: 02:23:56

    Файл
    Кодек: MPEG4/ISO/AVC/H.264
    Формат: MKV
    Качество: BDRip 720p | 60 fps
    Видео: 1280 x 532 (2.406) | 59.940 fps | 10.0 Мбит/сек
    Аудио 1: AC3 | 5.1 | 48 kHz | 640 kbps | 16 bit | Дубляж |
    Аудио 2: AC3 | 5.1 | 48 kHz | 640 kbps | 16 bit | ENG |
    Субтитры: Русские (full,forced), Eng

    MedifInfo

    Видео
    Идентификатор : 1
    Формат : AVC
    Формат/Информация : Advanced Video Codec
    Профиль формата : High@L4.1
    Параметр CABAC формата : Да
    Параметр ReFrames формата : 3 кадра
    Идентификатор кодека : V_MPEG4/ISO/AVC
    Продолжительность : 2 ч. 23 м.
    Вид битрейта : Переменный
    Битрейт : 9559 Кбит/сек
    Максимальный битрейт : 10000 Кбит/сек
    Ширина : 1280 пикселей
    Высота : 532 пикселя
    Соотношение сторон : 2,40:1
    Режим частоты кадров : Постоянный
    Частота кадров : 59,880 кадров/сек
    Частота кадров в оригинале : 59,940 кадров/сек
    Стандарт вещания : PAL
    Цветовое пространство : YUV
    Субдискретизация насыщенности : 4:2:0
    Битовая глубина : 8 бит
    Тип развёртки : Прогрессивная
    Бит/(Пиксели*Кадры) : 0.234
    Размер потока : 9,61 Гбайт (86%)
    Заголовок : www.60-fps.org
    Язык : English
    Default : Да
    Forced : Нет
    Основные цвета : BT.601 NTSC
    Характеристики трансфера : BT.601
    Коэффициенты матрицы : BT.601
    colour_range : Limited
    Аудио #1
    Идентификатор : 2
    Формат : AC-3
    Формат/Информация : Audio Coding 3
    Расширение режима : CM (complete main)
    Параметр Endianness формата : Big
    Идентификатор кодека : A_AC3
    Продолжительность : 2 ч. 23 м.
    Вид битрейта : Постоянный
    Битрейт : 640 Кбит/сек
    Каналы : 6 каналов
    Расположение каналов : Front: L C R, Side: L R, LFE
    Частота : 48,0 КГц
    Битовая глубина : 16 бит
    Метод сжатия : С потерями
    Размер потока : 659 Мбайт (6%)
    Заголовок : Дубляж
    Default : Да
    Forced : Да
    Аудио #2
    Идентификатор : 3
    Формат : AC-3
    Формат/Информация : Audio Coding 3
    Расширение режима : CM (complete main)
    Параметр Endianness формата : Big
    Идентификатор кодека : A_AC3
    Продолжительность : 2 ч. 23 м.
    Вид битрейта : Постоянный
    Битрейт : 640 Кбит/сек
    Каналы : 6 каналов
    Расположение каналов : Front: L C R, Side: L R, LFE
    Частота : 48,0 КГц
    Битовая глубина : 16 бит
    Метод сжатия : С потерями
    Размер потока : 659 Мбайт (6%)
    Заголовок : Eng
    Default : Нет
    Forced : Нет
    Текст #1
    Идентификатор : 4
    Формат : UTF-8
    Идентификатор кодека : S_TEXT/UTF8
    Идентификатор кодека/Информация : UTF-8 Plain Text
    Заголовок : Forced
    Язык : Russian
    Default : Да
    Forced : Нет
    Текст #2
    Идентификатор : 5
    Формат : UTF-8
    Идентификатор кодека : S_TEXT/UTF8
    Идентификатор кодека/Информация : UTF-8 Plain Text
    Заголовок : Full
    Язык : Russian
    Default : Нет
    Forced : Нет
    Текст #3
    Идентификатор : 6
    Формат : UTF-8
    Идентификатор кодека : S_TEXT/UTF8
    Идентификатор кодека/Информация : UTF-8 Plain Text
    Заголовок : Full
    Язык : English
    Default : Нет
    Forced : Нет
    Меню
    00:00:00.000 : en:00:00:00.000
    00:08:18.790 : en:00:08:18.790
    00:14:13.186 : en:00:14:13.186
    00:18:07.086 : en:00:18:07.086
    00:24:55.494 : en:00:24:55.494
    00:30:45.343 : en:00:30:45.343
    00:36:35.235 : en:00:36:35.235
    00:41:00.083 : en:00:41:00.083
    00:45:56.504 : en:00:45:56.504
    00:49:24.295 : en:00:49:24.295
    00:55:22.611 : en:00:55:22.611
    00:59:36.823 : en:00:59:36.823
    01:04:43.671 : en:01:04:43.671
    01:12:35.851 : en:01:12:35.851
    01:17:32.898 : en:01:17:32.898
    01:22:18.517 : en:01:22:18.517
    01:27:45.594 : en:01:27:45.594
    01:34:05.807 : en:01:34:05.807
    01:36:46.634 : en:01:36:46.634
    01:39:50.902 : en:01:39:50.902
    01:43:34.375 : en:01:43:34.375
    01:49:57.382 : en:01:49:57.382
    01:55:08.360 : en:01:55:08.360
    01:57:21.660 : en:01:57:21.660
    02:03:50.548 : en:02:03:50.548
    02:07:56.711 : en:02:07:56.711
    02:10:59.101 : en:02:10:59.101
    02:12:54.091 : en:02:12:54.091

    Release was prepared by 60 - fps



    Last edited by Kryl on 2016-11-10 21:33; edited 1 time in total
  2. Longevity:
    3 years 8 months
    Posts:
    46
    Gender:
    Unknown
    Полный провал Мне скучно
    06-Aug-2017 19:21 (after 10 months 26 days)
  3. Longevity:
    3 years 3 months
    Posts:
    13
    Gender:
    Male
    кто-нибудь встаньте на раздачу...
    09-Apr-2018 06:05 (after 8 months 2 days)


You cannot post new topics in this forum
You cannot reply to topics in this forum
You cannot edit your posts in this forum
You cannot delete your posts in this forum
You cannot vote in polls in this forum
You cannot attach files in this forum
You cannot download files in this forum