Внимание!

Перед скачиванием обязательно проверьте Сэмплы на своем оборудовании.

Благодарности

Raven за помощь при создании релиза и обложек

Люди Икс

-Название: Люди Икс
Оригинальное название: X-Men
Год выпуска: 2000
Страна: США
Жанр: фантастика, боевик, приключения
Продолжительность: 01:44:20
Перевод: Дубляж
Субтитры: русские (Полные), английские (Полные)-Режиссер: Брайан Сингер / Bryan Singer-В ролях: Хью Джекман (Logan / Wolverine), Патрик Стюарт (Professor Charles Xavier), Иэн МакКеллен (Eric Lensherr / Magneto), Фамке Янссен (Jean Grey), Джеймс Марсден (Scott Summers / Cyclops), Холли Берри (Ororo Munroe / Storm), Анна Пэкуин (Rogue / Marie), Шон Эшмор (Bobby Drake / Iceman), Ребекка Ромейн (Mystique), Тайлер Мэйн (Sabretooth), Рэй Парк (Toad), Брюс Дэвисон (Senator Kelly)-Описание:
Они - дети атомного века, сверхлюди, новое звено в цепи эволюции. Каждый из них был рождён в результате уникальной генетической мутации, наделившей их с детства необыкновенными способностями. В мире, где царят ненависть и предрассудки, мутанты - причуда науки и каприз природы. Этих изгоев ненавидят и боятся, те кто не способен понять и принять их индивидуальность. И всё же, несмотря на невежество и агрессивность масс, тысячи мутантов выживают.
Под руководством профессора Чарльза Ксавьера (Патрик Стюарт), телепата с мировым именем, одарённые ученики научились контролировать и управлять своими удивительными способностями в интересах человечества.
Но не все мутанты разделяют взгляды профессора: могущественный мутант Магнето, которому подвластны все металлы, собрал команду единомышленников. Он не верит, что люди и мутанты когда-либо смогут мирно сосуществовать. Они разработали план, чтобы осуществить захват власти над миром, и тогда, только ученики профессора Ксавьера смогут защитить этот мир...-Рейтинг

imdb.com: 7.40 (341 750)
MPAA: PG-13 - Детям до 13 лет просмотр не желателен-Автор рипа:Tiberiumsun69
-Качество: BDRip 1080p / 60 FPS
Формат: MKV
Видео кодек: AVC
Аудио кодек:AC3, DTS
Видео: AVC, 1920x816, 12461 kbps, 59,940 fps
Аудио №1: русский / AC3 / 5.1 / 48 kHz / 640 kbps / 16 bit |Дубляж|
Аудио №2: английский / AC3 / 5.1 / 48 kHz / 640 kbps / 16 bit
Аудио №3: русский / DTS / 5.1 / 48 kHz / 755 kbps / 24 bit |Дубляж|
Навигация по главам: есть- -

MI

General
Unique ID : 176933381601211947636175921085837689061 (0x851C21392E11186D8A68EB81A72B40E5)
Complete name : A:1080p 60fpsЛюди икс 1080p 60fpsЛюди икс 1 1080p 60fps.mkv
Format : Matroska
Format version : Version 4 / Version 2
File size : 10.8 GiB
Duration : 1h 44mn
Overall bit rate : 14.8 Mbps
Encoded date : UTC 2014-10-02 10:55:15
Writing application : mkvmerge v6.9.1 ('Blue Panther') 64bit built on Apr 18 2014 18:23:38
Writing library : libebml v1.3.0 + libmatroska v1.4.1
Video
ID : 1
Format : AVC
Format/Info : Advanced Video Codec
Format profile : High@L4.1
Format settings, CABAC : Yes
Format settings, ReFrames : 4 frames
Codec ID : V_MPEG4/ISO/AVC
Duration : 1h 44mn
Bit rate : 12.5 Mbps
Width : 1 920 pixels
Height : 816 pixels
Display aspect ratio : 2.35:1
Frame rate : 59.940 fps
Color space : YUV
Chroma subsampling : 4:2:0
Bit depth : 8 bits
Scan type : Progressive
Bits/(Pixel*Frame) : 0.133
Stream size : 9.08 GiB (84%)
Writing library : x264 core 130 r2273 b3065e6
Encoding settings : cabac=1 / ref=4 / deblock=1:0:0 / analyse=0x3:0 / me=umh / subme=9 / psy=1 / psy_rd=0.00:0.00 / mixed_ref=1 / me_range=42 / chroma_me=0 / trellis=1 / 8x8dct=1 / cqm=0 / deadzone=21,11 / fast_pskip=0 / chroma_qp_offset=0 / threads=12 / lookahead_threads=1 / sliced_threads=0 / nr=0 / decimate=0 / interlaced=0 / bluray_compat=0 / constrained_intra=0 / bframes=5 / b_pyramid=2 / b_adapt=2 / b_bias=0 / direct=1 / weightb=1 / open_gop=0 / weightp=2 / keyint=594 / keyint_min=59 / scenecut=40 / intra_refresh=0 / rc=crf / mbtree=0 / crf=14.0 / qcomp=0.60 / qpmin=0 / qpmax=69 / qpstep=4 / ip_ratio=1.40 / pb_ratio=1.30 / aq=1:0.90
Language : English
Default : Yes
Forced : No
Audio #1
ID : 2
Format : AC-3
Format/Info : Audio Coding 3
Mode extension : CM (complete main)
Codec ID : A_AC3
Duration : 1h 44mn
Bit rate mode : Constant
Bit rate : 640 Kbps
Channel(s) : 6 channels
Channel positions : Front: L C R, Side: L R, LFE
Sampling rate : 48.0 KHz
Bit depth : 16 bits
Compression mode : Lossy
Stream size : 478 MiB (4%)
Title : Дубляж
Language : Russian
Default : Yes
Forced : No
Audio #2
ID : 3
Format : AC-3
Format/Info : Audio Coding 3
Mode extension : CM (complete main)
Codec ID : A_AC3
Duration : 1h 44mn
Bit rate mode : Constant
Bit rate : 640 Kbps
Channel(s) : 6 channels
Channel positions : Front: L C R, Side: L R, LFE
Sampling rate : 48.0 KHz
Bit depth : 16 bits
Compression mode : Lossy
Stream size : 478 MiB (4%)
Title : Оригинал
Language : English
Default : No
Forced : No
Audio #3
ID : 4
Format : DTS
Format/Info : Digital Theater Systems
Codec ID : A_DTS
Duration : 1h 44mn
Bit rate mode : Constant
Bit rate : 755 Kbps
Channel(s) : 6 channels
Channel positions : Front: L C R, Side: L R, LFE
Sampling rate : 48.0 KHz
Bit depth : 24 bits
Compression mode : Lossy
Stream size : 563 MiB (5%)
Title : Дубляж
Language : Russian
Default : No
Forced : No
Text #1
ID : 5
Format : UTF-8
Codec ID : S_TEXT/UTF8
Codec ID/Info : UTF-8 Plain Text
Title : Полные
Language : Russian
Default : No
Forced : No
Text #2
ID : 6
Format : UTF-8
Codec ID : S_TEXT/UTF8
Codec ID/Info : UTF-8 Plain Text
Title : Полные
Language : English
Default : No
Forced : No

Скриншоты

Люди Икс 2

-Название: Люди Икс 2
Оригинальное название: X2
Год выпуска: 2003
Страна: Канада, США
Жанр: фантастика, боевик, триллер, приключения
Продолжительность: 02:13:47
Перевод: Дубляж
Субтитры: русские (Полные), английские (Полные)-Режиссер: Брайан Сингер / Bryan Singer-В ролях: Патрик Стюарт (Professor Charles Xavier), Хью Джекман (Logan / Wolverine), Иэн МакКеллен (Eric Lensherr / Magneto), Холли Берри (Ororo Munroe / Storm), Фамке Янссен (Jean Grey), Джеймс Марсден (Scott Summers / Cyclops), Анна Пэкуин (Marie / Rogue), Ребекка Ромейн (Raven Darkholme / Mystique), Брайан Кокс (William Stryker), Алан Камминг (Kurt Wagner / Nightcrawler), Брюс Дэвисон (Senator Kelly), Аарон Стэнфорд (John Allerdyce / Pyro)-Описание:
Мутанты продолжают борьбу против общества, которое страшит их, и которому они не доверяют. Их положение становится еще более отчаянным, когда они подвергаются мощной атаке неизвестного противника, обладающего экстраординарными способностями.
Внезапное нападение снова становится причиной политического и общественного резонанса по поводу введения повсеместной регистрации мутантов и причиной образования движения против мутантов, возглавляемого Уильямом Страйкером, бывшим военным, который, по слухам, проводил опыты над мутантами.
Работа Страйкера была каким-то образом связана с таинственным прошлым Логана, которое он не помнит. Как только Росомаха начинает пытаться разгадать свое прошлое, Страйкер активирует свою программу, направленную против мутантов, т. е. организует штурм на дом профессора Ксавье.
Сбежавший из пластиковой тюрьмы Магнето предлагает Людям Икс объединиться и сражаться вместе против их общего устрашающего врага Страйкера. На этот раз Люди ИКС сталкиваются с самой серьезной задачей, которая когда-либо стояла перед ними: сейчас в их руках судьбы не только всех мутантов, но и всего человечества.-Рейтинг

imdb.com: 7.50 (314 358)
MPAA: PG-13 - Детям до 13 лет просмотр не желателен-Автор рипа:Tiberiumsun69
-Качество: BDRip 1080p / 60 FPS
Формат: MKV
Видео кодек: AVC
Аудио кодек:AC3, DTS
Видео: AVC, 1920x800, 13651 kbps, 59,940 fps
Аудио №1: русский / AC3 / 5.1 / 48 kHz / 640 kbps / 16 bit |Дубляж|
Аудио №2: английский / AC3 / 5.1 / 48 kHz / 640 kbps / 16 bit
Аудио №3: русский / DTS / 5.1 / 48 kHz / 755 kbps / 24 bit |Дубляж|
Навигация по главам: есть- -

MI

General
Unique ID : 185112175809592161919240717590240875076 (0x8B434EE939B232369128EBCD9C1AD244)
Complete name : A:1080p 60fpsЛюди икс 1080p 60fpsЛюди икс 2 1080p 60fps.mkv
Format : Matroska
Format version : Version 4 / Version 2
File size : 15.0 GiB
Duration : 2h 13mn
Overall bit rate : 16.0 Mbps
Movie name : Tiberiumsun69
Encoded date : UTC 2014-10-03 18:51:57
Writing application : mkvmerge v6.9.1 ('Blue Panther') 64bit built on Apr 18 2014 18:23:38
Writing library : libebml v1.3.0 + libmatroska v1.4.1
Video
ID : 1
Format : AVC
Format/Info : Advanced Video Codec
Format profile : High@L4.1
Format settings, CABAC : Yes
Format settings, ReFrames : 4 frames
Codec ID : V_MPEG4/ISO/AVC
Duration : 2h 13mn
Bit rate : 13.7 Mbps
Width : 1 920 pixels
Height : 800 pixels
Display aspect ratio : 2.40:1
Frame rate : 59.940 fps
Color space : YUV
Chroma subsampling : 4:2:0
Bit depth : 8 bits
Scan type : Progressive
Bits/(Pixel*Frame) : 0.148
Stream size : 12.8 GiB (85%)
Writing library : x264 core 130 r2273 b3065e6
Encoding settings : cabac=1 / ref=4 / deblock=1:0:0 / analyse=0x3:0 / me=umh / subme=9 / psy=1 / psy_rd=0.00:0.00 / mixed_ref=1 / me_range=42 / chroma_me=0 / trellis=1 / 8x8dct=1 / cqm=0 / deadzone=21,11 / fast_pskip=0 / chroma_qp_offset=0 / threads=12 / lookahead_threads=1 / sliced_threads=0 / nr=0 / decimate=0 / interlaced=0 / bluray_compat=0 / constrained_intra=0 / bframes=5 / b_pyramid=2 / b_adapt=2 / b_bias=0 / direct=1 / weightb=1 / open_gop=0 / weightp=2 / keyint=594 / keyint_min=59 / scenecut=40 / intra_refresh=0 / rc=crf / mbtree=0 / crf=14.0 / qcomp=0.60 / qpmin=0 / qpmax=69 / qpstep=4 / ip_ratio=1.40 / pb_ratio=1.30 / aq=1:0.90
Language : English
Default : Yes
Forced : No
Audio #1
ID : 2
Format : AC-3
Format/Info : Audio Coding 3
Mode extension : CM (complete main)
Codec ID : A_AC3
Duration : 2h 13mn
Bit rate mode : Constant
Bit rate : 640 Kbps
Channel(s) : 6 channels
Channel positions : Front: L C R, Side: L R, LFE
Sampling rate : 48.0 KHz
Bit depth : 16 bits
Compression mode : Lossy
Stream size : 612 MiB (4%)
Title : Дубляж
Language : Russian
Default : Yes
Forced : No
Audio #2
ID : 3
Format : AC-3
Format/Info : Audio Coding 3
Mode extension : CM (complete main)
Codec ID : A_AC3
Duration : 2h 13mn
Bit rate mode : Constant
Bit rate : 640 Kbps
Channel(s) : 6 channels
Channel positions : Front: L C R, Side: L R, LFE
Sampling rate : 48.0 KHz
Bit depth : 16 bits
Compression mode : Lossy
Stream size : 612 MiB (4%)
Title : Оригинал
Language : English
Default : No
Forced : No
Audio #3
ID : 4
Format : DTS
Format/Info : Digital Theater Systems
Codec ID : A_DTS
Duration : 2h 13mn
Bit rate mode : Constant
Bit rate : 755 Kbps
Channel(s) : 6 channels
Channel positions : Front: L C R, Side: L R, LFE
Sampling rate : 48.0 KHz
Bit depth : 24 bits
Compression mode : Lossy
Stream size : 722 MiB (5%)
Title : Дубляж
Language : Russian
Default : No
Forced : No
Text #1
ID : 5
Format : UTF-8
Codec ID : S_TEXT/UTF8
Codec ID/Info : UTF-8 Plain Text
Title : Полные
Language : Russian
Default : No
Forced : No
Text #2
ID : 6
Format : UTF-8
Codec ID : S_TEXT/UTF8
Codec ID/Info : UTF-8 Plain Text
Title : Полные
Language : English
Default : No
Forced : No

Скриншоты

Люди Икс: Последняя битва

-Название: Люди Икс: Последняя битва
Оригинальное название: X-Men: The Last Stand
Год выпуска: 2006
Страна: Канада, США, Великобритания
Жанр: фантастика, боевик, триллер, приключения
Продолжительность: 01:44:05
Перевод: Дубляж
Субтитры: русские (Полные), английские (Полные)-Режиссер: Бретт Рэтнер / Brett Ratner-В ролях: Хью Джекман (Logan / Wolverine), Холли Берри (Ororo Munroe / Storm), Иэн МакКеллен (Eric Lehnsherr / Magneto), Фамке Янссен (Jean Grey / Phoenix), Келси Грэммер (Dr. Henry «Hank» McCoy / Beast), Шон Эшмор (Bobby Drake / Iceman), Аарон Стэнфорд (John Allerdyce / Pyro), Патрик Стюарт (Charles Xavier / Professor X), Бен Фостер (Warren Worthington III / Angel), Эллен Пейдж (Kitty Pryde / Shadowcat), Анна Пэкуин (Marie / Rogue), Джеймс Марсден (Scott Summers / Cyclops)-Описание:
Людям Икс, во главе с профессором Чарльзом Ксавьером, приходится вступить в битву с самой эволюцией в лице их воскресшего товарища по команде... Джин Грэй, возрожденная в облике Темного Феникса, представляет опасность не только для самой себя, но и для мутантов и для всей человеческой расы.
А когда наконец найдено возможное лекарство - то, что может предотвратить генетические мутации - наступает время решающей битвы между Людьми Икс, Братством Магнето и человечеством.-Рейтинг

imdb.com: 6.80 (282 107)
MPAA: PG-13 - Детям до 13 лет просмотр не желателен-Автор рипа:Tiberiumsun69
-Качество: BDRip 1080p / 60 FPS
Формат: MKV
Видео кодек: AVC
Аудио кодек:AC3, DTS
Видео: AVC, 1920x800, 14457 kbps, 59,940 fps
Аудио №1: русский / AC3 / 5.1 / 48 kHz / 640 kbps / 16 bit |Дубляж|
Аудио №2: английский / AC3 / 5.1 / 48 kHz / 640 kbps / 16 bit
Аудио №3: русский / DTS / 5.1 / 48 kHz / 755 kbps / 24 bit |Дубляж|
Навигация по главам: есть- -

MI

General
Unique ID : 179611463023757905657324364486102095069 (0x871FE8D4F1A18B729F42DF365C2214DD)
Complete name : A:1080p 60fpsЛюди икс 1080p 60fpsЛюди икс 3 1080p 60fps.mkv
Format : Matroska
Format version : Version 4 / Version 2
File size : 12.2 GiB
Duration : 1h 44mn
Overall bit rate : 16.8 Mbps
Movie name : Tiberiumsun69
Encoded date : UTC 2014-10-03 20:04:49
Writing application : mkvmerge v6.9.1 ('Blue Panther') 64bit built on Apr 18 2014 18:23:38
Writing library : libebml v1.3.0 + libmatroska v1.4.1
Video
ID : 1
Format : AVC
Format/Info : Advanced Video Codec
Format profile : High@L4.1
Format settings, CABAC : Yes
Format settings, ReFrames : 4 frames
Codec ID : V_MPEG4/ISO/AVC
Duration : 1h 44mn
Bit rate : 14.5 Mbps
Width : 1 920 pixels
Height : 800 pixels
Display aspect ratio : 2.40:1
Frame rate : 59.940 fps
Color space : YUV
Chroma subsampling : 4:2:0
Bit depth : 8 bits
Scan type : Progressive
Bits/(Pixel*Frame) : 0.157
Stream size : 10.5 GiB (86%)
Language : English
Default : Yes
Forced : No
Audio #1
ID : 2
Format : AC-3
Format/Info : Audio Coding 3
Mode extension : CM (complete main)
Codec ID : A_AC3
Duration : 1h 44mn
Bit rate mode : Constant
Bit rate : 640 Kbps
Channel(s) : 6 channels
Channel positions : Front: L C R, Side: L R, LFE
Sampling rate : 48.0 KHz
Bit depth : 16 bits
Compression mode : Lossy
Stream size : 476 MiB (4%)
Title : Дубляж
Language : Russian
Default : Yes
Forced : No
Audio #2
ID : 3
Format : AC-3
Format/Info : Audio Coding 3
Mode extension : CM (complete main)
Codec ID : A_AC3
Duration : 1h 44mn
Bit rate mode : Constant
Bit rate : 640 Kbps
Channel(s) : 6 channels
Channel positions : Front: L C R, Side: L R, LFE
Sampling rate : 48.0 KHz
Bit depth : 16 bits
Compression mode : Lossy
Stream size : 476 MiB (4%)
Title : Оригинал
Language : English
Default : No
Forced : No
Audio #3
ID : 4
Format : DTS
Format/Info : Digital Theater Systems
Codec ID : A_DTS
Duration : 1h 44mn
Bit rate mode : Constant
Bit rate : 755 Kbps
Channel(s) : 6 channels
Channel positions : Front: L C R, Side: L R, LFE
Sampling rate : 48.0 KHz
Bit depth : 24 bits
Compression mode : Lossy
Delay relative to video : 5ms
Stream size : 562 MiB (4%)
Title : Дубляж
Language : Russian
Default : No
Forced : No
Text #1
ID : 5
Format : UTF-8
Codec ID : S_TEXT/UTF8
Codec ID/Info : UTF-8 Plain Text
Title : Полные
Language : Russian
Default : No
Forced : No
Text #2
ID : 6
Format : UTF-8
Codec ID : S_TEXT/UTF8
Codec ID/Info : UTF-8 Plain Text
Title : Полные
Language : English
Default : No
Forced : No

Скриншоты

Люди Икс: Начало. Росомаха

-Название: Люди Икс: Начало. Росомаха
Оригинальное название: X-Men Origins: Wolverine
Год выпуска: 2009
Страна: США, Великобритания
Жанр: фантастика, боевик, триллер, приключения
Продолжительность: 01:47:24
Перевод: Дубляж
Субтитры: русские (Форсированные), русские (Полные), английские (Полные)-Режиссер: Гэвин Худ / Gavin Hood-В ролях: Хью Джекман (Logan / Wolverine), Лив Шрайбер (Victor Creed), Дэнни Хьюстон (Stryker), Уилл Ай Эм (John Wraith), Линн Коллинс (Kayla Silverfox), Кевин Дюран (Fred Dukes), Доминик Монахэн (Chris Bradley / Bolt), Тейлор Китч (Remy LeBeau), Дэниэл Хенни (Agent Zero), Райан Рейнольдс (Wade Wilson), Тим Пакок (Scott Summers), Джулия Блейк (Heather Hudson)-Описание:
Фильм рассказывает о неистовом и романтичном прошлом Росомахи, его сложных отношениях с Виктором Кридом и о зловещей программе Оружие Х. При этом Росомаха встречается со многими мутантами, уже знакомыми и новыми, и узнает несколько легенд о мире Людей Икс.-Рейтинг

imdb.com: 6.70 (258 143)
MPAA: PG-13 - Детям до 13 лет просмотр не желателен-Автор рипа:Tiberiumsun69
-Качество: BDRip 1080p / 60 FPS
Формат: MKV
Видео кодек: AVC
Аудио кодек:AC3, DTS
Видео: AVC, 1920x816, 11678 kbps, 59,940 fps
Аудио №1: русский / AC3 / 5.1 / 48 kHz / 640 kbps / 16 bit |Дубляж|
Аудио №2: английский / AC3 / 5.1 / 48 kHz / 640 kbps / 16 bit
Аудио №3: русский / DTS / 5.1 / 48 kHz / 755 kbps / 24 bit |Дубляж|
Навигация по главам: есть- -

MI

General
Unique ID : 178705398052908560211142168246957629353 (0x8671686136E18ABFB40EE53E13ABDFA9)
Complete name : A:1080p 60fpsЛюди икс 1080p 60fpsЛюди икс 4 1080p 60fps.mkv
Format : Matroska
Format version : Version 4 / Version 2
File size : 10.5 GiB
Duration : 1h 47mn
Overall bit rate : 14.0 Mbps
Movie name : Tiberiumsun69
Encoded date : UTC 2014-10-03 20:33:48
Writing application : mkvmerge v6.9.1 ('Blue Panther') 64bit built on Apr 18 2014 18:23:38
Writing library : libebml v1.3.0 + libmatroska v1.4.1
Video
ID : 1
Format : AVC
Format/Info : Advanced Video Codec
Format profile : High@L4.1
Format settings, CABAC : Yes
Format settings, ReFrames : 4 frames
Codec ID : V_MPEG4/ISO/AVC
Duration : 1h 47mn
Bit rate : 11.7 Mbps
Width : 1 920 pixels
Height : 816 pixels
Display aspect ratio : 2.35:1
Frame rate : 59.940 fps
Color space : YUV
Chroma subsampling : 4:2:0
Bit depth : 8 bits
Scan type : Progressive
Bits/(Pixel*Frame) : 0.124
Stream size : 8.76 GiB (83%)
Writing library : x264 core 130 r2273 b3065e6
Encoding settings : cabac=1 / ref=4 / deblock=1:0:0 / analyse=0x3:0 / me=umh / subme=9 / psy=1 / psy_rd=0.00:0.00 / mixed_ref=1 / me_range=42 / chroma_me=0 / trellis=1 / 8x8dct=1 / cqm=0 / deadzone=21,11 / fast_pskip=0 / chroma_qp_offset=0 / threads=12 / lookahead_threads=1 / sliced_threads=0 / nr=0 / decimate=0 / interlaced=0 / bluray_compat=0 / constrained_intra=0 / bframes=5 / b_pyramid=2 / b_adapt=2 / b_bias=0 / direct=1 / weightb=1 / open_gop=0 / weightp=2 / keyint=594 / keyint_min=59 / scenecut=40 / intra_refresh=0 / rc=crf / mbtree=0 / crf=16.0 / qcomp=0.60 / qpmin=0 / qpmax=69 / qpstep=4 / ip_ratio=1.40 / pb_ratio=1.30 / aq=1:0.90
Language : English
Default : Yes
Forced : No
Audio #1
ID : 2
Format : AC-3
Format/Info : Audio Coding 3
Mode extension : CM (complete main)
Codec ID : A_AC3
Duration : 1h 47mn
Bit rate mode : Constant
Bit rate : 640 Kbps
Channel(s) : 6 channels
Channel positions : Front: L C R, Side: L R, LFE
Sampling rate : 48.0 KHz
Bit depth : 16 bits
Compression mode : Lossy
Stream size : 492 MiB (5%)
Title : Дубляж
Language : Russian
Default : Yes
Forced : No
Audio #2
ID : 3
Format : AC-3
Format/Info : Audio Coding 3
Mode extension : CM (complete main)
Codec ID : A_AC3
Duration : 1h 47mn
Bit rate mode : Constant
Bit rate : 640 Kbps
Channel(s) : 6 channels
Channel positions : Front: L C R, Side: L R, LFE
Sampling rate : 48.0 KHz
Bit depth : 16 bits
Compression mode : Lossy
Stream size : 492 MiB (5%)
Title : Оригинал
Language : English
Default : No
Forced : No
Audio #3
ID : 4
Format : DTS
Format/Info : Digital Theater Systems
Codec ID : A_DTS
Duration : 1h 47mn
Bit rate mode : Constant
Bit rate : 755 Kbps
Channel(s) : 6 channels
Channel positions : Front: L C R, Side: L R, LFE
Sampling rate : 48.0 KHz
Bit depth : 24 bits
Compression mode : Lossy
Stream size : 580 MiB (5%)
Title : Дубляж
Language : Russian
Default : No
Forced : No
Text #1
ID : 5
Format : UTF-8
Codec ID : S_TEXT/UTF8
Codec ID/Info : UTF-8 Plain Text
Title : Форсированные
Language : Russian
Default : Yes
Forced : No
Text #2
ID : 6
Format : UTF-8
Codec ID : S_TEXT/UTF8
Codec ID/Info : UTF-8 Plain Text
Title : Полные
Language : Russian
Default : No
Forced : No
Text #3
ID : 7
Format : UTF-8
Codec ID : S_TEXT/UTF8
Codec ID/Info : UTF-8 Plain Text
Title : Полные
Language : English
Default : No
Forced : No

Скриншоты

Люди Икс: Первый класс

-Название: Люди Икс: Первый класс
Оригинальное название: X-Men: First Class
Год выпуска: 2011
Страна: США, Великобритания
Жанр: фантастика, боевик, приключения
Продолжительность: 02:11:43
Перевод: Дубляж
Субтитры: русские (Форсированные), русские (Полные), английские (Форсированные), английские (Полные)-Режиссер: Мэттью Вон / Matthew Vaughn-В ролях: Джеймс МакЭвой (Charles Xavier (24 Years)), Майкл Фассбендер (Erik Lensherr), Кевин Бейкон (Sebastian Shaw), Роуз Бирн (Moira MacTaggert), Дженнифер Лоуренс (Raven / Mystique), Дженьюэри Джонс (Emma Frost), Николас Холт (Hank / Beast), Лукас Тилл (Alex Summers / Havok), Калеб Лэндри Джонс (Cassidy / Banshee), Зои Кравиц (Angel Salvadore), Эди Гатеги (Armando Muñoz / Darwin), Джейсон Флеминг (Azazel)-Описание:
Фильм расскажет о том, как сформировались профессор Ксавье и Магнито, о процессе основания школы профессора для детей-мутантов и, наконец, о том, что же произошло между двумя закадычными друзьями и почему они расстались.-Рейтинг

imdb.com: 7.80 (384 491)
MPAA: PG-13 - Детям до 13 лет просмотр не желателен-Автор рипа:Tiberiumsun69
-Качество: BDRip 1080p / 60 FPS
Формат: MKV
Видео кодек: AVC
Аудио кодек:AC3, DTS
Видео: AVC, 1920x816, 14162 kbps, 59,940 fps
Аудио №1: русский / AC3 / 5.1 / 48 kHz / 640 kbps / 16 bit |Дубляж|
Аудио №2: английский / AC3 / 5.1 / 48 kHz / 640 kbps / 16 bit
Аудио №3: русский / DTS / 5.1 / 48 kHz / 755 kbps / 24 bit |Дубляж|
Навигация по главам: есть- -

MI

General
Unique ID : 245871129590604482632660594452417974404 (0xB8F90E9DB4751083B2420AA0C1179084)
Complete name : A:1080p 60fpsЛюди икс 1080p 60fpsЛюди икс 5 1080p 60fps.mkv
Format : Matroska
Format version : Version 4 / Version 2
File size : 15.2 GiB
Duration : 2h 11mn
Overall bit rate : 16.5 Mbps
Movie name : Tiberiumsun69
Encoded date : UTC 2014-10-03 21:24:29
Writing application : mkvmerge v6.9.1 ('Blue Panther') 64bit built on Apr 18 2014 18:23:38
Writing library : libebml v1.3.0 + libmatroska v1.4.1
Video
ID : 1
Format : AVC
Format/Info : Advanced Video Codec
Format profile : High@L4.1
Format settings, CABAC : Yes
Format settings, ReFrames : 4 frames
Codec ID : V_MPEG4/ISO/AVC
Duration : 2h 11mn
Bit rate : 14.2 Mbps
Width : 1 920 pixels
Height : 816 pixels
Display aspect ratio : 2.35:1
Frame rate : 59.940 fps
Color space : YUV
Chroma subsampling : 4:2:0
Bit depth : 8 bits
Scan type : Progressive
Bits/(Pixel*Frame) : 0.151
Stream size : 13.0 GiB (86%)
Writing library : x264 core 130 r2273 b3065e6
Encoding settings : cabac=1 / ref=4 / deblock=1:0:0 / analyse=0x3:0 / me=umh / subme=9 / psy=1 / psy_rd=0.00:0.00 / mixed_ref=1 / me_range=42 / chroma_me=0 / trellis=1 / 8x8dct=1 / cqm=0 / deadzone=21,11 / fast_pskip=0 / chroma_qp_offset=0 / threads=12 / lookahead_threads=1 / sliced_threads=0 / nr=0 / decimate=0 / interlaced=0 / bluray_compat=0 / constrained_intra=0 / bframes=5 / b_pyramid=2 / b_adapt=2 / b_bias=0 / direct=1 / weightb=1 / open_gop=0 / weightp=2 / keyint=594 / keyint_min=59 / scenecut=40 / intra_refresh=0 / rc=crf / mbtree=0 / crf=16.0 / qcomp=0.60 / qpmin=0 / qpmax=69 / qpstep=4 / ip_ratio=1.40 / pb_ratio=1.30 / aq=1:0.90
Language : English
Default : Yes
Forced : No
Audio #1
ID : 2
Format : AC-3
Format/Info : Audio Coding 3
Mode extension : CM (complete main)
Codec ID : A_AC3
Duration : 2h 11mn
Bit rate mode : Constant
Bit rate : 640 Kbps
Channel(s) : 6 channels
Channel positions : Front: L C R, Side: L R, LFE
Sampling rate : 48.0 KHz
Bit depth : 16 bits
Compression mode : Lossy
Stream size : 603 MiB (4%)
Title : Дубляж
Language : Russian
Default : Yes
Forced : No
Audio #2
ID : 3
Format : AC-3
Format/Info : Audio Coding 3
Mode extension : CM (complete main)
Codec ID : A_AC3
Duration : 2h 11mn
Bit rate mode : Constant
Bit rate : 640 Kbps
Channel(s) : 6 channels
Channel positions : Front: L C R, Side: L R, LFE
Sampling rate : 48.0 KHz
Bit depth : 16 bits
Compression mode : Lossy
Stream size : 603 MiB (4%)
Title : Оригинал
Language : English
Default : No
Forced : No
Audio #3
ID : 4
Format : DTS
Format/Info : Digital Theater Systems
Codec ID : A_DTS
Duration : 2h 11mn
Bit rate mode : Constant
Bit rate : 755 Kbps
Channel(s) : 6 channels
Channel positions : Front: L C R, Side: L R, LFE
Sampling rate : 48.0 KHz
Bit depth : 24 bits
Compression mode : Lossy
Stream size : 711 MiB (5%)
Title : Дубляж
Language : Russian
Default : No
Forced : No
Text #1
ID : 5
Format : UTF-8
Codec ID : S_TEXT/UTF8
Codec ID/Info : UTF-8 Plain Text
Title : Форсированные
Language : Russian
Default : Yes
Forced : No
Text #2
ID : 6
Format : UTF-8
Codec ID : S_TEXT/UTF8
Codec ID/Info : UTF-8 Plain Text
Title : Полные
Language : Russian
Default : No
Forced : No
Text #3
ID : 7
Format : UTF-8
Codec ID : S_TEXT/UTF8
Codec ID/Info : UTF-8 Plain Text
Title : Форсированные
Language : English
Default : No
Forced : No
Text #4
ID : 8
Format : UTF-8
Codec ID : S_TEXT/UTF8
Codec ID/Info : UTF-8 Plain Text
Title : Полные
Language : English
Default : No
Forced : No

Скриншоты

[url=http://i68.fastpic.ru/big/2014/1004/c9/969eef9bfcbc7adf1328b3fd1a9a08c9.jpg]

[Цитировать]
PitBull4ik

Спасибо конечно, но в описании 5 фильмов, а в раздаче 7 и названия 1,2,3...7 немного сбивают с толка.
 
Показать сообщения:    

Текущее время: 09-Дек 22:21

Часовой пояс: UTC + 3


Вы не можете начинать темы
Вы не можете отвечать на сообщения
Вы не можете редактировать свои сообщения
Вы не можете удалять свои сообщения
Вы не можете голосовать в опросах
Вы не можете прикреплять файлы к сообщениям
Вы не можете скачивать файлы