Люди Икс — серия фантастических фильмов про людей-мутантов, обладающих невероятными силами, основанная на одноимённых комиксах компании Marvel Comics. Сначала была выпущена трилогия, после вышли спин-оффы и приквелы, но затем, в 2013 году, оригинальная серия фильмов возобновилась.

Люди Икс / X-Men (2000)

«Доверяй немногим, бойся остальных»- Информация
Название: Люди Икс
Оригинальное название: X-Men
Год выхода: 2000
Жанр: фантастика, боевик, приключения
Режиссер: Брайан Сингер
Сценарий: Дэвид Хэйтер, Том ДеСанто, Брайан Сингер
Продюсер: Лорен Шулер Доннер, Ральф Уинтер, Ави Арад
В ролях: Хью Джекман, Патрик Стюарт, Иэн МакКеллен, Фамке Янссен, Джеймс Марсден, Холли Берри, Анна Пакуин, Тайлер Мэйн, Рэй Парк, Ребекка Ромин
--Сюжет:

Они — дети атомного века, сверхлюди, новое звено в цепи эволюции. Каждый из них был рождён в результате уникальной генетической мутации, наделившей их с детства необыкновенными способностями. В мире, где царят ненависть и предрассудки, мутанты — причуда науки и каприз природы. Этих изгоев ненавидят и боятся те, кто не способен понять и принять их индивидуальность. И всё же, несмотря на невежество и агрессивность масс, тысячи мутантов выживают.
Под руководством профессора Чарльза Ксавьера, телепата с мировым именем, одарённые ученики научились контролировать и управлять своими удивительными способностями в интересах человечества.
Но не все мутанты разделяют взгляды профессора: могущественный мутант Магнето, которому подвластны все металлы, собрал команду единомышленников. Он не верит, что люди и мутанты когда-либо смогут мирно сосуществовать. Они разработали план, чтобы осуществить захват власти над миром, и тогда, только ученики профессора Ксавьера смогут защитить этот мир…
- - Страна: США
Продолжительность: 01:44:20

Файл
Кодек: MPEG4/ISO/AVC H.264
Формат: MKV
Качество: BDRip-AVC | 60 fps
Видео: 1024x432 (2.35:1) | 59.940 fps | 4.0 Мбит/сек
Аудио: AC3 | 5.1 | 48 kHz | 640 kbps | 16 bit | Дубляж |
Субтитры: русские (Полные), английские (Полные)

MedifInfo

Video
ID : 1
Format : AVC
Format/Info : Advanced Video Codec
Format profile : High@L4.1
Format settings, CABAC : Yes
Format settings, ReFrames : 4 frames
Codec ID : V_MPEG4/ISO/AVC
Duration : 1h 44mn
Bit rate : 4 000 Kbps
Width : 1 024 pixels
Height : 432 pixels
Display aspect ratio : 2.35:1
Frame rate : 59.940 fps
Color space : YUV
Chroma subsampling : 4:2:0
Bit depth : 8 bits
Scan type : Progressive
Bits/(Pixel*Frame) : 0.151
Stream size : 2.85 GiB (84%)
Writing library : x264 core 146 r2538 121396c
Encoding settings : cabac=1 / ref=3 / deblock=1:0:0 / analyse=0x3:0x113 / me=umh / subme=9 / psy=1 / psy_rd=1.00:0.10 / mixed_ref=1 / me_range=32 / chroma_me=1 / trellis=2 / 8x8dct=1 / cqm=0 / deadzone=21,11 / fast_pskip=0 / chroma_qp_offset=-3 / threads=12 / lookahead_threads=3 / sliced_threads=0 / nr=0 / decimate=1 / interlaced=0 / bluray_compat=0 / constrained_intra=0 / bframes=16 / b_pyramid=2 / b_adapt=2 / b_bias=0 / direct=3 / weightb=1 / open_gop=0 / weightp=2 / keyint=250 / keyint_min=25 / scenecut=40 / intra_refresh=0 / rc_lookahead=40 / rc=2pass / mbtree=1 / bitrate=4000 / ratetol=1.0 / qcomp=0.60 / qpmin=0 / qpmax=69 / qpstep=4 / cplxblur=20.0 / qblur=0.5 / vbv_maxrate=14000 / vbv_bufsize=14000 / nal_hrd=none / filler=0 / ip_ratio=1.40 / aq=1:1.00
Language : English
Default : Yes
Forced : No
Audio
ID : 2
Format : AC-3
Format/Info : Audio Coding 3
Mode extension : CM (complete main)
Codec ID : A_AC3
Duration : 1h 44mn
Bit rate mode : Constant
Bit rate : 640 Kbps
Channel(s) : 6 channels
Channel positions : Front: L C R, Side: L R, LFE
Sampling rate : 48.0 KHz
Bit depth : 16 bits
Compression mode : Lossy
Stream size : 478 MiB (14%)
Title : Дубляж
Language : Russian
Default : Yes
Forced : No
Text #1
ID : 3
Format : UTF-8
Codec ID : S_TEXT/UTF8
Codec ID/Info : UTF-8 Plain Text
Title : Полные
Language : Russian
Default : No
Forced : No
Text #2
ID : 4
Format : UTF-8
Codec ID : S_TEXT/UTF8
Codec ID/Info : UTF-8 Plain Text
Title : Полные
Language : English
Default : No
Forced : No
Menu
00:00:00.000 : en:Chapter 1
00:01:19.287 : en:Chapter 2
00:04:18.132 : en:Chapter 3
00:05:56.022 : en:Chapter 4
00:07:56.058 : en:Chapter 5
00:09:23.688 : en:Chapter 6
00:11:37.697 : en:Chapter 7
00:14:38.502 : en:Chapter 8
00:18:01.663 : en:Chapter 9
00:20:49.665 : en:Chapter 10
00:22:09.119 : en:Chapter 11
00:23:58.645 : en:Chapter 12
00:28:45.849 : en:Chapter 13
00:29:55.168 : en:Chapter 14
00:32:06.507 : en:Chapter 15
00:33:37.682 : en:Chapter 16
00:36:37.236 : en:Chapter 17
00:38:25.177 : en:Chapter 18
00:41:11.886 : en:Chapter 19
00:44:13.859 : en:Chapter 20
00:45:50.456 : en:Chapter 21
00:48:41.543 : en:Chapter 22
00:50:22.436 : en:Chapter 23
00:52:05.831 : en:Chapter 24
00:54:58.211 : en:Chapter 25
00:58:11.154 : en:Chapter 26
00:59:19.764 : en:Chapter 27
01:01:54.961 : en:Chapter 28
01:03:17.627 : en:Chapter 29
01:06:02.375 : en:Chapter 30
01:08:39.782 : en:Chapter 31
01:12:21.378 : en:Chapter 32
01:18:03.804 : en:Chapter 33
01:20:53.223 : en:Chapter 34
01:24:28.063 : en:Chapter 35
01:26:58.421 : en:Chapter 36
01:29:08.509 : en:Chapter 37
01:31:47.210 : en:Chapter 38
01:33:12.878 : en:Chapter 39
01:35:12.123 : en:Chapter 40
01:44:20.045 : en:Chapter 41

Люди Икс 2 / X2 (2003)

«Сплотиться сегодня, чтобы наступило завтра»- Информация
Название: Люди Икс 2
Оригинальное название: X2
Год выхода: 2003
Жанр: фантастика, боевик, приключения
Режиссер: Брайан Сингер
Сценарий: Дэвид Хэйтер, Майкл Догерти, Дэн Харрис
Продюсер: Лорен Шулер Доннер, Ральф Уинтер, Ави Арад
В ролях: Патрик Стюарт, Хью Джекман, Иэн МакКеллен, Холли Берри, Фамке Янссен, Джеймс Марсден, Анна Пакуин, Ребекка Ромин, Брайан Кокс, Алан Камминг
--Сюжет:

Мутанты продолжают борьбу против общества, которое страшит их, и которому они не доверяют. Их положение становится еще более отчаянным, когда они подвергаются мощной атаке неизвестного противника, обладающего экстраординарными способностями.
Внезапное нападение снова становится причиной политического и общественного резонанса по поводу введения повсеместной регистрации мутантов и причиной образования движения против мутантов, возглавляемого Уильямом Страйкером, бывшим военным, который, по слухам, проводил опыты над мутантами.
- - Страна: Канада, США
Продолжительность: 02:13:47

Файл
Кодек: MPEG4/ISO/AVC H.264
Формат: MKV
Качество: BDRip-AVC | 60 fps
Видео: 1024x424 (2.40:1) | 59.940 fps | 3.5 Мбит/сек
Аудио: AC3 | 5.1 | 48 kHz | 640 kbps | 16 bit | Дубляж |
Субтитры: русские (Полные), английские (Полные)

MedifInfo

Video
ID : 1
Format : AVC
Format/Info : Advanced Video Codec
Format profile : High@L4.1
Format settings, CABAC : Yes
Format settings, ReFrames : 4 frames
Codec ID : V_MPEG4/ISO/AVC
Duration : 2h 13mn
Bit rate : 3 580 Kbps
Width : 1 024 pixels
Height : 424 pixels
Display aspect ratio : 2.40:1
Frame rate : 59.940 fps
Color space : YUV
Chroma subsampling : 4:2:0
Bit depth : 8 bits
Scan type : Progressive
Bits/(Pixel*Frame) : 0.138
Stream size : 3.27 GiB (83%)
Writing library : x264 core 146 r2538 121396c
Encoding settings : cabac=1 / ref=3 / deblock=1:0:0 / analyse=0x3:0x113 / me=umh / subme=9 / psy=1 / psy_rd=1.00:0.10 / mixed_ref=1 / me_range=32 / chroma_me=1 / trellis=2 / 8x8dct=1 / cqm=0 / deadzone=21,11 / fast_pskip=0 / chroma_qp_offset=-3 / threads=12 / lookahead_threads=3 / sliced_threads=0 / nr=0 / decimate=1 / interlaced=0 / bluray_compat=0 / constrained_intra=0 / bframes=16 / b_pyramid=2 / b_adapt=2 / b_bias=0 / direct=3 / weightb=1 / open_gop=0 / weightp=2 / keyint=250 / keyint_min=25 / scenecut=40 / intra_refresh=0 / rc_lookahead=40 / rc=2pass / mbtree=1 / bitrate=3580 / ratetol=1.0 / qcomp=0.60 / qpmin=0 / qpmax=69 / qpstep=4 / cplxblur=20.0 / qblur=0.5 / vbv_maxrate=14000 / vbv_bufsize=14000 / nal_hrd=none / filler=0 / ip_ratio=1.40 / aq=1:1.00
Language : English
Default : Yes
Forced : No
Audio
ID : 2
Format : AC-3
Format/Info : Audio Coding 3
Mode extension : CM (complete main)
Codec ID : A_AC3
Duration : 2h 13mn
Bit rate mode : Constant
Bit rate : 640 Kbps
Channel(s) : 6 channels
Channel positions : Front: L C R, Side: L R, LFE
Sampling rate : 48.0 KHz
Bit depth : 16 bits
Compression mode : Lossy
Stream size : 612 MiB (15%)
Title : Дубляж
Language : Russian
Default : Yes
Forced : No
Text #1
ID : 3
Format : UTF-8
Codec ID : S_TEXT/UTF8
Codec ID/Info : UTF-8 Plain Text
Title : Полные
Language : Russian
Default : No
Forced : No
Text #2
ID : 4
Format : UTF-8
Codec ID : S_TEXT/UTF8
Codec ID/Info : UTF-8 Plain Text
Title : Полные
Language : English
Default : No
Forced : No
Menu
00:00:00.000 : en:Chapter 1
00:01:50.527 : en:Chapter 2
00:05:21.946 : en:Chapter 3
00:07:12.265 : en:Chapter 4
00:12:27.121 : en:Chapter 5
00:15:34.224 : en:Chapter 6
00:17:57.326 : en:Chapter 7
00:19:25.706 : en:Chapter 8
00:22:47.616 : en:Chapter 9
00:26:09.693 : en:Chapter 10
00:29:15.962 : en:Chapter 11
00:31:10.285 : en:Chapter 12
00:33:41.686 : en:Chapter 13
00:35:09.524 : en:Chapter 14
00:39:50.179 : en:Chapter 15
00:45:35.733 : en:Chapter 16
00:47:18.335 : en:Chapter 17
00:50:24.104 : en:Chapter 18
00:53:17.986 : en:Chapter 19
00:55:40.420 : en:Chapter 20
00:57:14.931 : en:Chapter 21
00:59:21.808 : en:Chapter 22
01:04:55.892 : en:Chapter 23
01:09:23.701 : en:Chapter 24
01:14:48.734 : en:Chapter 25
01:18:18.485 : en:Chapter 26
01:24:52.545 : en:Chapter 27
01:27:16.439 : en:Chapter 28
01:30:32.385 : en:Chapter 29
01:32:33.923 : en:Chapter 30
01:36:44.089 : en:Chapter 31
01:41:16.070 : en:Chapter 32
01:43:31.163 : en:Chapter 33
01:46:38.058 : en:Chapter 34
01:48:38.637 : en:Chapter 35
01:53:41.940 : en:Chapter 36
01:58:18.883 : en:Chapter 37
02:02:14.660 : en:Chapter 38
02:04:38.471 : en:Chapter 39
02:05:11.170 : en:Chapter 40
02:13:47.227 : en:Chapter 41

Люди Икс: Последняя битва / X-Men: The Last Stand (2006)

«На чьей стороне будешь ты?»- Информация
Название: Люди Икс: Последняя битва
Оригинальное название: X-Men: The Last Stand
Год выхода: 2006
Жанр: фантастика, боевик, триллер, приключения
Режиссер: Бретт Рэтнер
Сценарий: Саймон Кинберг, Зак Пенн
Продюсер: Ави Арад, Лорен Шулер Доннер, Ральф Уинтер
В ролях:
Патрик Стюарт, Хью Джекман, Иэн МакКеллен, Холли Берри, Фамке Янссен, Джеймс Марсден, Анна Пакуин, Ребекка Ромин, Брайан Кокс, Алан Камминг
--Сюжет:

Людям Икс, во главе с профессором Чарльзом Ксавьером, приходится вступить в битву с самой эволюцией в лице их воскресшего товарища по команде… Джин Грэй, возрожденная в облике Темного Феникса, представляет опасность не только для самой себя, но и для мутантов и для всей человеческой расы.
А когда наконец найдено возможное лекарство — то, что может предотвратить генетические мутации — наступает время решающей битвы между Людьми Икс, Братством Магнето и человечеством.
- - Страна: Канада, США, Великобритания
Продолжительность: 01:44:05

Файл
Кодек: MPEG4/ISO/AVC H.264
Формат: MKV
Качество: BDRip-AVC | 60 fps
Видео: 1024x424 (2.40:1) | 59.940 fps | 3.9 Мбит/сек
Аудио: AC3 | 5.1 | 48 kHz | 640 kbps | 16 bit | Дубляж |
Субтитры: русские (Полные), английские (Полные)

MedifInfo

Video
ID : 1
Format : AVC
Format/Info : Advanced Video Codec
Format profile : High@L4.1
Format settings, CABAC : Yes
Format settings, ReFrames : 4 frames
Codec ID : V_MPEG4/ISO/AVC
Duration : 1h 44mn
Bit rate : 3 900 Kbps
Width : 1 024 pixels
Height : 424 pixels
Display aspect ratio : 2.40:1
Frame rate : 59.940 fps
Color space : YUV
Chroma subsampling : 4:2:0
Bit depth : 8 bits
Scan type : Progressive
Bits/(Pixel*Frame) : 0.150
Stream size : 2.77 GiB (84%)
Writing library : x264 core 146 r2538 121396c
Encoding settings : cabac=1 / ref=3 / deblock=1:0:0 / analyse=0x3:0x113 / me=umh / subme=9 / psy=1 / psy_rd=1.00:0.10 / mixed_ref=1 / me_range=32 / chroma_me=1 / trellis=2 / 8x8dct=1 / cqm=0 / deadzone=21,11 / fast_pskip=0 / chroma_qp_offset=-3 / threads=12 / lookahead_threads=3 / sliced_threads=0 / nr=0 / decimate=1 / interlaced=0 / bluray_compat=0 / constrained_intra=0 / bframes=16 / b_pyramid=2 / b_adapt=2 / b_bias=0 / direct=3 / weightb=1 / open_gop=0 / weightp=2 / keyint=250 / keyint_min=25 / scenecut=40 / intra_refresh=0 / rc_lookahead=40 / rc=2pass / mbtree=1 / bitrate=3900 / ratetol=1.0 / qcomp=0.60 / qpmin=0 / qpmax=69 / qpstep=4 / cplxblur=20.0 / qblur=0.5 / vbv_maxrate=14000 / vbv_bufsize=14000 / nal_hrd=none / filler=0 / ip_ratio=1.40 / aq=1:1.00
Language : English
Default : Yes
Forced : No
Audio
ID : 2
Format : AC-3
Format/Info : Audio Coding 3
Mode extension : CM (complete main)
Codec ID : A_AC3
Duration : 1h 44mn
Bit rate mode : Constant
Bit rate : 640 Kbps
Channel(s) : 6 channels
Channel positions : Front: L C R, Side: L R, LFE
Sampling rate : 48.0 KHz
Bit depth : 16 bits
Compression mode : Lossy
Stream size : 476 MiB (14%)
Title : Дубляж
Language : Russian
Default : Yes
Forced : No
Text #1
ID : 3
Format : UTF-8
Codec ID : S_TEXT/UTF8
Codec ID/Info : UTF-8 Plain Text
Title : Полные
Language : Russian
Default : No
Forced : No
Text #2
ID : 4
Format : UTF-8
Codec ID : S_TEXT/UTF8
Codec ID/Info : UTF-8 Plain Text
Title : Полные
Language : English
Default : No
Forced : No
Menu
00:00:00.000 : en:Chapter 1
00:05:17.191 : en:Chapter 2
00:09:21.310 : en:Chapter 3
00:12:19.405 : en:Chapter 4
00:17:53.072 : en:Chapter 5
00:23:09.137 : en:Chapter 6
00:30:57.897 : en:Chapter 7
00:33:57.493 : en:Chapter 8
00:38:02.363 : en:Chapter 9
00:43:48.167 : en:Chapter 10
00:50:36.742 : en:Chapter 11
00:55:37.083 : en:Chapter 12
00:58:02.854 : en:Chapter 13
01:01:13.878 : en:Chapter 14
01:03:56.749 : en:Chapter 15
01:08:16.801 : en:Chapter 16
01:10:40.569 : en:Chapter 17
01:13:21.313 : en:Chapter 18
01:19:11.538 : en:Chapter 19
01:22:10.091 : en:Chapter 20
01:25:03.848 : en:Chapter 21
01:29:41.751 : en:Chapter 22
01:34:25.701 : en:Chapter 23
01:36:02.590 : en:Chapter 24
01:44:04.988 : en:Chapter 25

Люди Икс: Начало. Росомаха / X-Men Origins: Wolverine (2009)

«Узнай, с чего начиналась легенда»- Информация
Название: Люди Икс: Начало. Росомаха
Оригинальное название: X-Men Origins: Wolverine
Год выхода: 2009
Жанр: фантастика, боевик, триллер, приключения
Режиссер: Гэвин Худ
Сценарий: Дэвид Бениофф, Скип Вудс
Продюсер: Хью Джекман, Джон Палермо, Лорен Шулер Доннер
В ролях:
Хью Джекман, Лив Шрайбер, Дэнни Хьюстон, Уилл Ай Эм, Линн Коллинз, Кевин Дюран, Доминик Монахэн, Тейлор Китч, Дэниэл Хенни, Райан Рейнольдс, Скотт Эдкинс, Тим Пакок, Джулия Блейк, Макс Каллен, Трой Сайван, Майкл - Джеймс Олсен, Питер О`Брайэн, Аарон Джеффри, Элис Паркинсон, Филип А. Паттерсон, Энтони Ги
--Сюжет:

Фильм рассказывает о неистовом и романтичном прошлом Росомахи, его сложных отношениях с Виктором Кридом и о зловещей программе Оружие Х. При этом Росомаха встречается со многими мутантами, уже знакомыми и новыми, и узнает несколько легенд о мире Людей Икс.
- - Страна: Канада, США
Продолжительность: 01:47:24

Файл
Кодек: MPEG4/ISO/AVC H.264
Формат: MKV
Качество: BDRip-AVC | 60 fps
Видео: 1024x432 (2.35:1) | 59.940 fps | 4.0 Мбит/сек
Аудио: AC3 | 5.1 | 48 kHz | 640 kbps | 16 bit | Дубляж |
Субтитры: русские (Форсированные), русские (Полные), английские (Полные)

MedifInfo

Video
ID : 1
Format : AVC
Format/Info : Advanced Video Codec
Format profile : High@L4.1
Format settings, CABAC : Yes
Format settings, ReFrames : 4 frames
Codec ID : V_MPEG4/ISO/AVC
Duration : 1h 47mn
Bit rate : 4 000 Kbps
Width : 1 024 pixels
Height : 432 pixels
Display aspect ratio : 2.35:1
Frame rate : 59.940 fps
Color space : YUV
Chroma subsampling : 4:2:0
Bit depth : 8 bits
Scan type : Progressive
Bits/(Pixel*Frame) : 0.151
Stream size : 2.93 GiB (84%)
Writing library : x264 core 146 r2538 121396c
Encoding settings : cabac=1 / ref=3 / deblock=1:0:0 / analyse=0x3:0x113 / me=umh / subme=9 / psy=1 / psy_rd=1.00:0.10 / mixed_ref=1 / me_range=32 / chroma_me=1 / trellis=2 / 8x8dct=1 / cqm=0 / deadzone=21,11 / fast_pskip=0 / chroma_qp_offset=-3 / threads=12 / lookahead_threads=3 / sliced_threads=0 / nr=0 / decimate=1 / interlaced=0 / bluray_compat=0 / constrained_intra=0 / bframes=16 / b_pyramid=2 / b_adapt=2 / b_bias=0 / direct=3 / weightb=1 / open_gop=0 / weightp=2 / keyint=250 / keyint_min=25 / scenecut=40 / intra_refresh=0 / rc_lookahead=40 / rc=2pass / mbtree=1 / bitrate=4000 / ratetol=1.0 / qcomp=0.60 / qpmin=0 / qpmax=69 / qpstep=4 / cplxblur=20.0 / qblur=0.5 / vbv_maxrate=14000 / vbv_bufsize=14000 / nal_hrd=none / filler=0 / ip_ratio=1.40 / aq=1:1.00
Language : English
Default : Yes
Forced : No
Audio
ID : 2
Format : AC-3
Format/Info : Audio Coding 3
Mode extension : CM (complete main)
Codec ID : A_AC3
Duration : 1h 47mn
Bit rate mode : Constant
Bit rate : 640 Kbps
Channel(s) : 6 channels
Channel positions : Front: L C R, Side: L R, LFE
Sampling rate : 48.0 KHz
Bit depth : 16 bits
Compression mode : Lossy
Stream size : 492 MiB (14%)
Title : Дубляж
Language : Russian
Default : Yes
Forced : No
Text #1
ID : 3
Format : UTF-8
Codec ID : S_TEXT/UTF8
Codec ID/Info : UTF-8 Plain Text
Title : Форсированные
Language : Russian
Default : Yes
Forced : No
Text #2
ID : 4
Format : UTF-8
Codec ID : S_TEXT/UTF8
Codec ID/Info : UTF-8 Plain Text
Title : Полные
Language : Russian
Default : No
Forced : No
Text #3
ID : 5
Format : UTF-8
Codec ID : S_TEXT/UTF8
Codec ID/Info : UTF-8 Plain Text
Title : Полные
Language : English
Default : No
Forced : No
Menu
00:00:00.000 : :00:00:00.000
00:03:21.201 : :00:03:21.201
00:07:49.010 : :00:07:49.010
00:10:28.419 : :00:10:28.419
00:14:09.807 : :00:14:09.807
00:17:50.111 : :00:17:50.111
00:19:31.504 : :00:19:31.504
00:25:55.137 : :00:25:55.137
00:28:17.988 : :00:28:17.988
00:32:28.572 : :00:32:28.572
00:37:51.311 : :00:37:51.311
00:45:03.367 : :00:45:03.367
00:49:43.647 : :00:49:43.647
00:56:28.468 : :00:56:28.468
00:59:41.828 : :00:59:41.828
01:02:17.651 : :01:02:17.651
01:06:12.177 : :01:06:12.177
01:09:54.524 : :01:09:54.524
01:12:54.704 : :01:12:54.704
01:16:19.742 : :01:16:19.742
01:21:29.468 : :01:21:29.468
01:25:57.778 : :01:25:57.778
01:28:55.121 : :01:28:55.121
01:32:06.813 : :01:32:06.813
01:33:37.070 : :01:33:37.070
01:37:15.538 : :01:37:15.538
01:40:22.141 : :01:40:22.141
01:41:26.122 : :01:41:26.122
01:47:21.143 : :01:47:21.143

Люди Икс: Первый класс / X-Men: First Class (2011)

«Стань свидетелем того, как изменится наш мир»- Информация
Название: Люди Икс: Первый класс
Оригинальное название: X-Men Origins: Wolverine
Год выхода: 2011
Жанр: фантастика, боевик, приключения
Режиссер: Мэттью Вон
Сценарий: Эшли Миллер, Зак Стенц, Джейн Голдман
Продюсер: Грегори Гудман, Саймон Кинберг, Лорен Шулер Доннер
В ролях:
Джеймс МакЭвой, Майкл Фассбендер, Кевин Бейкон, Калеб Лэндри Джонс, Николас Холт, Лукас Тилл, Дженнифер Лоуренс, Джейсон Флеминг, Зои Кравиц, Дженьюэри Джонс
--Сюжет:

Фильм расскажет о том, как сформировались профессор Ксавьер и Магнито, о процессе основания школы профессора для детей-мутантов и, наконец, о том, что же произошло между двумя закадычными друзьями и почему они расстались.
- - Страна: США, Великобритания
Продолжительность: 02:11:43

Файл
Кодек: MPEG4/ISO/AVC H.264
Формат: MKV
Качество: BDRip-AVC | 60 fps
Видео: 1024x432 (2.35:1) | 59.940 fps | 3.6 Мбит/сек
Аудио: AC3 | 5.1 | 48 kHz | 640 kbps | 16 bit | Дубляж |
Субтитры: русские (Форсированные), русские (Полные), английские (Полные)

MedifInfo

Video
ID : 1
Format : AVC
Format/Info : Advanced Video Codec
Format profile : High@L4.1
Format settings, CABAC : Yes
Format settings, ReFrames : 4 frames
Codec ID : V_MPEG4/ISO/AVC
Duration : 2h 11mn
Bit rate : 3 650 Kbps
Width : 1 024 pixels
Height : 432 pixels
Display aspect ratio : 2.35:1
Frame rate : 59.940 fps
Color space : YUV
Chroma subsampling : 4:2:0
Bit depth : 8 bits
Scan type : Progressive
Bits/(Pixel*Frame) : 0.138
Stream size : 3.28 GiB (83%)
Writing library : x264 core 146 r2538 121396c
Encoding settings : cabac=1 / ref=3 / deblock=1:0:0 / analyse=0x3:0x113 / me=umh / subme=9 / psy=1 / psy_rd=1.00:0.10 / mixed_ref=1 / me_range=32 / chroma_me=1 / trellis=2 / 8x8dct=1 / cqm=0 / deadzone=21,11 / fast_pskip=0 / chroma_qp_offset=-3 / threads=12 / lookahead_threads=3 / sliced_threads=0 / nr=0 / decimate=1 / interlaced=0 / bluray_compat=0 / constrained_intra=0 / bframes=16 / b_pyramid=2 / b_adapt=2 / b_bias=0 / direct=3 / weightb=1 / open_gop=0 / weightp=2 / keyint=250 / keyint_min=25 / scenecut=40 / intra_refresh=0 / rc_lookahead=40 / rc=2pass / mbtree=1 / bitrate=3650 / ratetol=1.0 / qcomp=0.60 / qpmin=0 / qpmax=69 / qpstep=4 / cplxblur=20.0 / qblur=0.5 / vbv_maxrate=14000 / vbv_bufsize=14000 / nal_hrd=none / filler=0 / ip_ratio=1.40 / aq=1:1.00
Language : English
Default : Yes
Forced : No
Audio
ID : 2
Format : AC-3
Format/Info : Audio Coding 3
Mode extension : CM (complete main)
Codec ID : A_AC3
Duration : 2h 11mn
Bit rate mode : Constant
Bit rate : 640 Kbps
Channel(s) : 6 channels
Channel positions : Front: L C R, Side: L R, LFE
Sampling rate : 48.0 KHz
Bit depth : 16 bits
Compression mode : Lossy
Stream size : 603 MiB (15%)
Title : Дубляж
Language : Russian
Default : Yes
Forced : No
Text #1
ID : 3
Format : UTF-8
Codec ID : S_TEXT/UTF8
Codec ID/Info : UTF-8 Plain Text
Title : Форсированные
Language : Russian
Default : Yes
Forced : No
Text #2
ID : 4
Format : UTF-8
Codec ID : S_TEXT/UTF8
Codec ID/Info : UTF-8 Plain Text
Title : Полные
Language : Russian
Default : No
Forced : No
Text #3
ID : 5
Format : UTF-8
Codec ID : S_TEXT/UTF8
Codec ID/Info : UTF-8 Plain Text
Title : Полные
Language : English
Default : No
Forced : No
Menu
00:00:00.000 : en:00:00:00.000
00:04:21.553 : en:00:04:21.553
00:09:33.156 : en:00:09:33.156
00:14:03.426 : en:00:14:03.426
00:16:08.176 : en:00:16:08.176
00:22:10.829 : en:00:22:10.829
00:27:11.046 : en:00:27:11.046
00:28:46.350 : en:00:28:46.350
00:31:32.891 : en:00:31:32.891
00:36:07.540 : en:00:36:07.540
00:40:12.660 : en:00:40:12.660
00:44:16.487 : en:00:44:16.487
00:50:05.753 : en:00:50:05.753
00:54:00.863 : en:00:54:00.863
01:01:07.414 : en:01:01:07.414
01:08:17.927 : en:01:08:17.927
01:11:51.098 : en:01:11:51.098
01:14:06.525 : en:01:14:06.525
01:20:07.052 : en:01:20:07.052
01:23:43.226 : en:01:23:43.226
01:27:35.834 : en:01:27:35.834
01:28:51.243 : en:01:28:51.243
01:31:24.979 : en:01:31:24.979
01:33:33.900 : en:01:33:33.900
01:37:54.410 : en:01:37:54.410
01:39:55.197 : en:01:39:55.197
01:43:37.962 : en:01:43:37.962
01:47:44.166 : en:01:47:44.166
01:52:38.460 : en:01:52:38.460
01:56:44.623 : en:01:56:44.623
02:01:26.696 : en:02:01:26.696
02:04:24.248 : en:02:04:24.248

Росомаха: Бессмертный / The Wolverine (2013)

«When he's most vulnerable, he's most dangerous»- Информация
Название: Росомаха: Бессмертный
Оригинальное название: The Wolverine
Год выхода: 2013
Жанр: фантастика, боевик, приключения
Режиссер: Джеймс Мэнголд
Сценарий: Марк Бомбэк, Скотт Фрэнк
Продюсер: Хатч Паркер, Лорен Шулер Доннер, Джозеф М. Карачиоло мл.
В ролях:
Хью Джекман, Тао Окамото, Рила Фукусима, Светлана Ходченкова, Уилл Юн Ли, Харукико Яманоути, Хироюки Санада, Брайан Ти, Кен Ямамура, Фамке Янссен
--Сюжет:

Новая глава приключений Росомахи развернётся в Японии, где Логану предстоит выяснить, что острее — когти Росомахи или меч Серебряного Самурая.
- - Страна: США, Великобритания, Австралия, Япония
Продолжительность: 02:18:14

Файл
Кодек: MPEG4/ISO/AVC H.264
Формат: MKV
Качество: BDRip-AVC | 60 fps
Видео: 1024x424 (2.40:1) | 59.940 fps | 3.4 Мбит/сек
Аудио: AC3 | 5.1 | 48 kHz | 640 kbps | 16 bit | Дубляж |
Субтитры: русские (Форсированные), русские (Полные), английские (Полные)

MedifInfo

Video
ID : 1
Format : AVC
Format/Info : Advanced Video Codec
Format profile : High@L4.1
Format settings, CABAC : Yes
Format settings, ReFrames : 4 frames
Codec ID : V_MPEG4/ISO/AVC
Duration : 2h 18mn
Bit rate : 3 450 Kbps
Width : 1 024 pixels
Height : 424 pixels
Display aspect ratio : 2.40:1
Frame rate : 59.940 fps
Color space : YUV
Chroma subsampling : 4:2:0
Bit depth : 8 bits
Scan type : Progressive
Bits/(Pixel*Frame) : 0.133
Stream size : 3.25 GiB (82%)
Writing library : x264 core 146 r2538 121396c
Encoding settings : cabac=1 / ref=3 / deblock=1:0:0 / analyse=0x3:0x113 / me=umh / subme=9 / psy=1 / psy_rd=1.00:0.10 / mixed_ref=1 / me_range=32 / chroma_me=1 / trellis=2 / 8x8dct=1 / cqm=0 / deadzone=21,11 / fast_pskip=0 / chroma_qp_offset=-3 / threads=12 / lookahead_threads=3 / sliced_threads=0 / nr=0 / decimate=1 / interlaced=0 / bluray_compat=0 / constrained_intra=0 / bframes=16 / b_pyramid=2 / b_adapt=2 / b_bias=0 / direct=3 / weightb=1 / open_gop=0 / weightp=2 / keyint=250 / keyint_min=25 / scenecut=40 / intra_refresh=0 / rc_lookahead=40 / rc=2pass / mbtree=1 / bitrate=3450 / ratetol=1.0 / qcomp=0.60 / qpmin=0 / qpmax=69 / qpstep=4 / cplxblur=20.0 / qblur=0.5 / vbv_maxrate=14000 / vbv_bufsize=14000 / nal_hrd=none / filler=0 / ip_ratio=1.40 / aq=1:1.00
Language : English
Default : Yes
Forced : No
Audio
ID : 2
Format : AC-3
Format/Info : Audio Coding 3
Mode extension : CM (complete main)
Codec ID : A_AC3
Duration : 2h 18mn
Bit rate mode : Constant
Bit rate : 640 Kbps
Channel(s) : 6 channels
Channel positions : Front: L C R, Side: L R, LFE
Sampling rate : 48.0 KHz
Bit depth : 16 bits
Compression mode : Lossy
Stream size : 633 MiB (16%)
Default : Yes
Forced : No
Text #1
ID : 3
Format : UTF-8
Codec ID : S_TEXT/UTF8
Codec ID/Info : UTF-8 Plain Text
Title : Форсированные
Language : Russian
Default : Yes
Forced : No
Text #2
ID : 4
Format : UTF-8
Codec ID : S_TEXT/UTF8
Codec ID/Info : UTF-8 Plain Text
Title : Полные
Language : Russian
Default : No
Forced : No
Text #3
ID : 5
Format : UTF-8
Codec ID : S_TEXT/UTF8
Codec ID/Info : UTF-8 Plain Text
Title : Полные
Language : English
Default : No
Forced : No
Menu
00:00:00.000 : en:00:00:00.000
00:05:03.720 : en:00:05:03.720
00:07:39.793 : en:00:07:39.793
00:08:40.562 : en:00:08:40.562
00:10:24.374 : en:00:10:24.374
00:13:55.668 : en:00:13:55.668
00:16:48.174 : en:00:16:48.174
00:20:32.648 : en:00:20:32.648
00:23:36.498 : en:00:23:36.498
00:29:13.585 : en:00:29:13.585
00:33:42.771 : en:00:33:42.771
00:35:14.779 : en:00:35:14.779
00:38:36.522 : en:00:38:36.522
00:43:04.957 : en:00:43:04.957
00:47:55.080 : en:00:47:55.080
00:49:31.844 : en:00:49:31.844
00:52:23.098 : en:00:52:23.098
00:59:32.318 : en:00:59:32.318
01:01:31.354 : en:01:01:31.354
01:07:00.516 : en:01:07:00.516
01:13:10.261 : en:01:13:10.261
01:18:52.227 : en:01:18:52.227
01:23:40.473 : en:01:23:40.473
01:26:47.160 : en:01:26:47.160
01:29:50.927 : en:01:29:50.927
01:35:19.380 : en:01:35:19.380
01:38:28.194 : en:01:38:28.194
01:41:43.639 : en:01:41:43.639
01:48:33.006 : en:01:48:33.006
01:52:05.969 : en:01:52:05.969
01:54:56.264 : en:01:54:56.264
01:58:03.493 : en:01:58:03.493
02:03:01.999 : en:02:03:01.999
02:04:57.406 : en:02:04:57.406
02:07:46.700 : en:02:07:46.700
02:09:17.374 : en:02:09:17.374

Люди Икс: Дни минувшего будущего / X-Men: Days of Future Past (2014)

«His past. Our future»- Информация
Название: Люди Икс: Дни минувшего будущего
Оригинальное название: X-Men: Days of Future Past
Год выхода: 2014
Жанр: фантастика, боевик, приключения
Режиссер: Брайан Сингер
Сценарий: Саймон Кинберг, Джейн Голдман, Мэттью Вон
Продюсер: Саймон Кинберг, Хатч Паркер, Лорен Шулер Доннер
В ролях:
Майкл Фассбендер, Джеймс МакЭвой, Хью Джекман, Дженнифер Лоуренс, Иэн МакКеллен, Патрик Стюарт, Николас Холт, Эллен Пейдж, Холли Берри, Питер Динклэйдж
--Сюжет:

В недалёком будущем мутанты близки к истреблению роботами-охотниками на мутантов Стражами. Единственная надежда для мутантов выжить — предотвратить череду роковых событий, приведших к появлению Стражей. С помощью своих способностей, Китти Прайд перемещает сознание Росомахи в его молодое тело в 1973 год. В прошлом всё оказывается не так радужно: молодой Профессор Икс окончательно разочарован в своих идеях, Магнето содержится в тюрьме глубоко под землёй, а человечество не знает как реагировать на широкое появление мутантов…
- - Страна: США, Великобритания, Канада
Продолжительность: 02:28:45

Файл
Кодек: MPEG4/ISO/AVC H.264
Формат: MKV
Качество: BDRip-AVC | 60 fps
Видео: 1024x424 (2.40:1) | 59.940 fps | 3.4 Мбит/сек
Аудио: AC3 | 5.1 | 48 kHz | 384 kbps | 16 bit | Дубляж (iTunes) |
Субтитры: русские (Полные), английские (Полные)

MedifInfo

Video
ID : 1
Format : AVC
Format/Info : Advanced Video Codec
Format profile : High@L4.1
Format settings, CABAC : Yes
Format settings, ReFrames : 4 frames
Codec ID : V_MPEG4/ISO/AVC
Duration : 2h 28mn
Bit rate : 3 425 Kbps
Width : 1 024 pixels
Height : 424 pixels
Display aspect ratio : 2.40:1
Frame rate : 59.940 fps
Color space : YUV
Chroma subsampling : 4:2:0
Bit depth : 8 bits
Scan type : Progressive
Bits/(Pixel*Frame) : 0.132
Stream size : 3.49 GiB (88%)
Writing library : x264 core 146 r2538 121396c
Encoding settings : cabac=1 / ref=3 / deblock=1:0:0 / analyse=0x3:0x113 / me=umh / subme=9 / psy=1 / psy_rd=1.00:0.10 / mixed_ref=1 / me_range=32 / chroma_me=1 / trellis=2 / 8x8dct=1 / cqm=0 / deadzone=21,11 / fast_pskip=0 / chroma_qp_offset=-3 / threads=12 / lookahead_threads=3 / sliced_threads=0 / nr=0 / decimate=1 / interlaced=0 / bluray_compat=0 / constrained_intra=0 / bframes=16 / b_pyramid=2 / b_adapt=2 / b_bias=0 / direct=3 / weightb=1 / open_gop=0 / weightp=2 / keyint=250 / keyint_min=25 / scenecut=40 / intra_refresh=0 / rc_lookahead=40 / rc=2pass / mbtree=1 / bitrate=3425 / ratetol=1.0 / qcomp=0.60 / qpmin=0 / qpmax=69 / qpstep=4 / cplxblur=20.0 / qblur=0.5 / vbv_maxrate=14000 / vbv_bufsize=14000 / nal_hrd=none / filler=0 / ip_ratio=1.40 / aq=1:1.00
Language : English
Default : Yes
Forced : No
Audio
ID : 2
Format : AC-3
Format/Info : Audio Coding 3
Mode extension : CM (complete main)
Codec ID : A_AC3
Duration : 2h 28mn
Bit rate mode : Constant
Bit rate : 384 Kbps
Channel(s) : 6 channels
Channel positions : Front: L C R, Side: L R, LFE
Sampling rate : 48.0 KHz
Bit depth : 16 bits
Compression mode : Lossy
Stream size : 409 MiB (10%)
Title : Дубляж (iTunes)
Language : Russian
Default : Yes
Forced : No
Text #1
ID : 3
Format : UTF-8
Codec ID : S_TEXT/UTF8
Codec ID/Info : UTF-8 Plain Text
Title : Полные
Language : Russian
Default : No
Forced : No
Text #2
ID : 4
Format : UTF-8
Codec ID : S_TEXT/UTF8
Codec ID/Info : UTF-8 Plain Text
Title : Полные
Language : English
Default : No
Forced : No
Menu
00:00:00.000 : en:00:00:00.000
00:03:33.338 : en:00:03:33.338
00:08:04.734 : en:00:08:04.734
00:10:34.217 : en:00:10:34.217
00:15:11.410 : en:00:15:11.410
00:18:44.248 : en:00:18:44.248
00:22:43.529 : en:00:22:43.529
00:24:38.769 : en:00:24:38.769
00:29:05.619 : en:00:29:05.619
00:33:03.440 : en:00:33:03.440
00:37:11.896 : en:00:37:11.896
00:38:49.827 : en:00:38:49.827
00:41:06.923 : en:00:41:06.923
00:43:50.336 : en:00:43:50.336
00:50:05.377 : en:00:50:05.377
00:52:07.082 : en:00:52:07.082
00:55:11.391 : en:00:55:11.391
00:57:56.348 : en:00:57:56.348
01:01:04.661 : en:01:01:04.661
01:04:01.421 : en:01:04:01.421
01:06:39.829 : en:01:06:39.829
01:10:22.802 : en:01:10:22.802
01:13:00.459 : en:01:13:00.459
01:16:28.334 : en:01:16:28.334
01:18:48.724 : en:01:18:48.724
01:20:44.590 : en:01:20:44.590
01:22:46.962 : en:01:22:46.962
01:28:07.574 : en:01:28:07.574
01:31:19.057 : en:01:31:19.057
01:33:50.958 : en:01:33:50.958
01:39:22.373 : en:01:39:22.373
01:42:10.291 : en:01:42:10.291
01:44:32.016 : en:01:44:32.016
01:49:13.547 : en:01:49:13.547
01:51:00.862 : en:01:51:00.862
01:54:54.304 : en:01:54:54.304
01:59:15.940 : en:01:59:15.940
02:02:13.743 : en:02:02:13.743
02:04:30.504 : en:02:04:30.504
02:08:16.230 : en:02:08:16.230
02:13:27.583 : en:02:13:27.583
02:16:57.250 : en:02:16:57.250
02:19:19.809 : en:02:19:19.809
02:27:34.011 : en:02:27:34.011


Последний раз редактировалось: bot (2016-01-30 12:04), всего редактировалось 7 раз(а)

[Цитировать]
Артур2015

спасибо за сборник...... побольше бы таких сборников!!!

[Цитировать]
Тимур Артыков

Скоро вроде должны новые выйти. Никто не знает когда?

[Цитировать]
badika19911992

Люди икс Апокалипсис выйдут в этом году 19 мая
 
Показать сообщения:    

Текущее время: 05-Дек 05:28

Часовой пояс: UTC + 3


Вы не можете начинать темы
Вы не можете отвечать на сообщения
Вы не можете редактировать свои сообщения
Вы не можете удалять свои сообщения
Вы не можете голосовать в опросах
Вы не можете прикреплять файлы к сообщениям
Вы не можете скачивать файлы