Властелин колец: Трилогия / The Lord of the Rings: Trilogy (2001-2003) BDRip-AVC | Extended Cut | 60 fps Принц Персии: Пески времени / Prince of Persia: The Sands of Time (2010) BDRip 1080p | 60 fps К звёздам / Ad Astra (2019) BDRip 1080p | 60 fps Достать ножи / Knives Out (2019) BDRip 1080p | 60 fps День, когда Земля остановилась / The Day the Earth Stood Still (2008) BDRip 1080p | 60 fps Удивительное путешествие доктора Дулиттла / Dolittle (2020) BDRip 1080p | 60 fps 21 мост / 21 Bridges (2019) BDRip 1080p | 60 fps Паразиты / Gisaengchung (2019) BDRip 1080p | 60 fps
  1. Longevity:
    5 years 11 months
    Posts:
    2419
    Gender:
    Male
    «Справедливость - это не преступление»- Информация
    Название: Любой ценой
    Оригинальное название: Hell or High Water
    Год выхода: 2016
    Жанр: Драма, криминал
    Режиссер: Дэвид Маккензи
    Сценарий: Тейлор Шеридан
    Продюсер: Питер Берг, Карла Хэкен, Сидни Киммел
    В ролях: Джефф Бриджес, Крис Пайн, Бен Фостер, Джил Бирмингем, Дейл Дикки, Уильям Стерчи, Бак Тейлор, Кристин Берг, Кит Мэривезер, Жакмо Буззел
    --Сюжет:
    Два брата-лузера решают наведаться в хранилища пары-тройки банков, которые много лет безбожно обкрадывают своих должников. Расследование дерзких ограблений с грубым почерком увенчает карьеру шерифа Маркуса. Но куда выведет это нехитрое дело?- Страна: США
    Продолжительность: 01:42:15

    Файл
    Кодек: MPEG4/ISO/AVC/H.264
    Формат: MKV
    Качество: BDRip 720p | 60 fps
    Видео: 1280 x 534 (2.397) | 59.940 fps | 8.0 Мбит/сек
    Аудио 1: AC3 | 5.1 | 48 kHz | 384 kbps | 16 bit | Дубляж - iTunes |
    Аудио 2: AC3 | 5.1 | 48 kHz | 640 kbps | 16 bit | ENG |
    Субтитры: Eng

    MedifInfo

    Видео
    Идентификатор : 1
    Формат : AVC
    Формат/Информация : Advanced Video Codec
    Профиль формата : High@L4.1
    Параметр CABAC формата : Да
    Параметр ReFrames формата : 3 кадра
    Идентификатор кодека : V_MPEG4/ISO/AVC
    Продолжительность : 1 ч. 42 м.
    Вид битрейта : Переменный
    Битрейт : 7671 Кбит/сек
    Максимальный битрейт : 8000 Кбит/сек
    Ширина : 1280 пикселей
    Высота : 534 пикселя
    Соотношение сторон : 2,40:1
    Режим частоты кадров : Постоянный
    Частота кадров : 59,880 кадров/сек
    Частота кадров в оригинале : 59,940 кадров/сек
    Стандарт вещания : PAL
    Цветовое пространство : YUV
    Субдискретизация насыщенности : 4:2:0
    Битовая глубина : 8 бит
    Тип развёртки : Прогрессивная
    Бит/(Пиксели*Кадры) : 0.187
    Размер потока : 5,48 Гбайт (86%)
    Заголовок : www.60-fps.org
    Язык : English
    Default : Да
    Forced : Нет
    Основные цвета : BT.601 NTSC
    Характеристики трансфера : BT.601
    Коэффициенты матрицы : BT.601
    colour_range : Limited
    Аудио #1
    Идентификатор : 2
    Формат : AC-3
    Формат/Информация : Audio Coding 3
    Расширение режима : CM (complete main)
    Параметр Endianness формата : Big
    Идентификатор кодека : A_AC3
    Продолжительность : 1 ч. 42 м.
    Вид битрейта : Постоянный
    Битрейт : 384 Кбит/сек
    Каналы : 6 каналов
    Расположение каналов : Front: L C R, Side: L R, LFE
    Частота : 48,0 КГц
    Битовая глубина : 16 бит
    Метод сжатия : С потерями
    Размер потока : 281 Мбайт (4%)
    Заголовок : iTunes
    Язык : Russian
    Default : Да
    Forced : Нет
    Аудио #2
    Идентификатор : 3
    Формат : AC-3
    Формат/Информация : Audio Coding 3
    Расширение режима : CM (complete main)
    Параметр Endianness формата : Big
    Идентификатор кодека : A_AC3
    Продолжительность : 1 ч. 42 м.
    Вид битрейта : Постоянный
    Битрейт : 640 Кбит/сек
    Каналы : 6 каналов
    Расположение каналов : Front: L C R, Side: L R, LFE
    Частота : 48,0 КГц
    Битовая глубина : 16 бит
    Метод сжатия : С потерями
    Размер потока : 468 Мбайт (7%)
    Заголовок : Eng
    Язык : English
    Default : Нет
    Forced : Нет
    Текст
    Идентификатор : 4
    Формат : UTF-8
    Идентификатор кодека : S_TEXT/UTF8
    Идентификатор кодека/Информация : UTF-8 Plain Text
    Заголовок : Full
    Язык : English
    Default : Нет
    Forced : Нет
    Меню
    00:00:00.000 : en:Chapter 1
    00:09:37.243 : en:Chapter 2
    00:13:50.454 : en:Chapter 3
    00:22:14.583 : en:Chapter 4
    00:28:40.385 : en:Chapter 5
    00:31:54.329 : en:Chapter 6
    00:40:49.613 : en:Chapter 7
    00:46:49.932 : en:Chapter 8
    00:55:45.091 : en:Chapter 9
    01:02:06.472 : en:Chapter 10
    01:09:52.897 : en:Chapter 11
    01:14:04.648 : en:Chapter 12
    01:20:56.226 : en:Chapter 13
    01:29:09.135 : en:Chapter 14
    01:35:03.864 : en:Chapter 15
    01:38:28.277 : en:Chapter 16

    Release was prepared by 60 - fps

  2. bot

    Longevity:
    5 years 11 months
    Posts:
    410
    Gender:
    Unknown
    Топик был перенесен из форума Новинки Кино 60 FPS в форум Зарубежные фильмы 60 FPS
    Kryl
    27-Nov-2016 12:22 (after 13 days)
  3. Longevity:
    5 years 1 month
    Posts:
    149
    Gender:
    Male
    Спасибо Овации Улыбаюсь
    27-Nov-2016 16:18 (after 13 days)
  4. Longevity:
    3 years 1 month
    Posts:
    1
    Gender:
    Unknown
    Привет
    03-Sep-2017 15:49 (after 9 months 5 days)
  5. Longevity:
    4 years 8 months
    Posts:
    48
    Gender:
    Male
    классный фильм Привет
    08-Sep-2017 00:04 (after 4 days)


You cannot post new topics in this forum
You cannot reply to topics in this forum
You cannot edit your posts in this forum
You cannot delete your posts in this forum
You cannot vote in polls in this forum
You cannot attach files in this forum
You cannot download files in this forum