-Название: Любовь и голуби
Год выпуска: 1984
Страна: СССР
Жанр: мелодрама, комедия
Продолжительность: 01:44:44
Перевод: Оригинальный
Субтитры: русские (Полные)-Режиссер: Владимир Меньшов-В ролях: Александр Михайлов (Вася), Нина Дорошина (Надя), Людмила Гурченко (Раиса Захаровна), Сергей Юрский (Дядя Митя), Наталья Тенякова (Баба Шура), Янина Лисовская (Люда), Игорь Лях (Леня), Лада Сизоненко (Оля), Владимир Меньшов (в титрах не указан), Константин Михайлов (в титрах не указан)-Описание:
Ликвидируя неисправность лебедки, Василий Кузякин получил травму и путевку на юг. Встретил роковую женщину Раису Захаровну и... вернулся Вася с курорта не к себе в деревню, а в дом Раисы Захаровны. Началась для него новая жизнь, в которой было много непонятного и интересного, но не было дома, где остались Надя, дети и голуби...-Рейтинг
kinopoisk.ru: 8.218 (82 627)
imdb.com: 8.30 (1349)--Качество: BDRip 1080p / 60 FPS
Формат: MKV
Видео кодек: MPEG-4 AVC/H.264
Аудио кодек:AC3, DTS
Видео: AVC, 1920x1080, 19.0 Mbps ABR High@L4.2, 59,940 fps
Аудио №1: русский / AC3 / 5.1 / 48 kHz / 448 kbps / 16 bit-

MI

General
Unique ID : 201282406733672748918916251291409745074 (0x976D94D94BBB163B9976B053119084B2)
Complete name : D:\Video\60 fps\Любовь и голуби\Любовь и голуби (1984) BDRip [1080p 60fps].mkv
Format : Matroska
Format version : Version 2
File size : 14.2 GiB
Duration : 1h 44mn
Overall bit rate : 19.5 Mbps
Encoded date : UTC 2012-10-07 09:47:25
Writing application : mkvmerge v5.8.0 ('No Sleep / Pillow') built on Sep 2 2012 15:37:04
Writing library : libebml v1.2.3 + libmatroska v1.3.0
Video
ID : 1
Format : AVC
Format/Info : Advanced Video Codec
Format profile : High@L4.2
Format settings, CABAC : Yes
Format settings, ReFrames : 4 frames
Muxing mode : Header stripping
Codec ID : V_MPEG4/ISO/AVC
Duration : 1h 44mn
Bit rate : 19.0 Mbps
Width : 1 920 pixels
Height : 1 080 pixels
Display aspect ratio : 16:9
Frame rate : 59.940 fps
Color space : YUV
Chroma subsampling : 4:2:0
Bit depth : 8 bits
Scan type : Progressive
Bits/(Pixel*Frame) : 0.153
Stream size : 13.6 GiB (96%)
Writing library : x264 core 120 r2120kMod 0c7dab9
Encoding settings : cabac=1 / ref=4 / deblock=1:0:0 / analyse=0x3:0x13 / me=umh / subme=7 / psy=1 / fade_compensate=0.00 / psy_rd=1.00:0.00 / mixed_ref=1 / me_range=10 / chroma_me=1 / trellis=1 / 8x8dct=1 / cqm=0 / deadzone=21,11 / fast_pskip=1 / chroma_qp_offset=-2 / threads=2 / sliced_threads=1 / slices=2 / nr=0 / decimate=1 / interlaced=0 / bluray_compat=0 / constrained_intra=0 / bframes=0 / weightp=2 / keyint=300 / keyint_min=30 / scenecut=40 / intra_refresh=0 / rc=abr / mbtree=0 / bitrate=19000 / ratetol=1.0 / qcomp=0.60 / qpmin=10 / qpmax=51 / qpstep=4 / ip_ratio=1.40 / aq=1:1.00
Default : Yes
Forced : No
Audio
ID : 2
Format : AC-3
Format/Info : Audio Coding 3
Mode extension : CM (complete main)
Muxing mode : Header stripping
Codec ID : A_AC3
Duration : 1h 44mn
Bit rate mode : Constant
Bit rate : 448 Kbps
Channel(s) : 6 channels
Channel positions : Front: L C R, Side: L R, LFE
Sampling rate : 48.0 KHz
Bit depth : 16 bits
Compression mode : Lossy
Stream size : 336 MiB (2%)
Language : Russian
Default : Yes
Forced : No

Скриншоты

[Цитировать]
erdos009

Встаньте на раздачу, пожалуйста!

[Цитировать]
Kryl

2493Встаньте на раздачу, пожалуйста!
Перекачайте торрент файл .

[Цитировать]
iam

прошу стать на раздачу, спасибо!

[Цитировать]
volhvseslavovic

Добрый день , спасибо за Полосатый рейс . Дайте пожалуйста скорости а то две недели уже висит на половине . (Аватар у вас на бешенной одет ради интереса поставил. )
 
Показать сообщения:    

Текущее время: 09-Дек 22:19

Часовой пояс: UTC + 3


Вы не можете начинать темы
Вы не можете отвечать на сообщения
Вы не можете редактировать свои сообщения
Вы не можете удалять свои сообщения
Вы не можете голосовать в опросах
Вы не можете прикреплять файлы к сообщениям
Вы не можете скачивать файлы