[Цитировать]
Kryl

-Любэ, Корни, In2Natiоn - Просто Любовь (2012) BDRip 1080p | 60 fps
OST "Август. Восьмого"
- Информация о Клипе
Исполнитель: Любэ, Корни, In2Natiоn
Название: Просто Любовь
Год выхода: 2012
Продолжительность: 00:03:27-Файл
Кодек: MPEG4/ISO/AVC/ H.264
Формат: MKV
Качество: BDRip 1080p
Видео: 1920 x 808 (2.376) at 59.880 fps 15.0 Мбит/сек
Аудио: AC-3 | 192 Кбит/сек | 48.0 KHz | 2 channels

MI

Видео
Идентификатор : 1
Формат : AVC
Формат/Информация : Advanced Video Codec
Профиль формата : High@L4.1
Параметр CABAC формата : Да
Параметр ReFrames формата : 5 кадров
Идентификатор кодека : V_MPEG4/ISO/AVC
Продолжительность : 3 м. 27 с.
Битрейт : 15,0 Мбит/сек
Ширина : 1920 пикселей
Высота : 808 пикселей
Соотношение сторон : 2,40:1
Режим частоты кадров : Постоянный
Частота кадров : 59,880 кадров/сек
Частота кадров в оригинале : 59,940 кадров/сек
Цветовое пространство : YUV
Субдискретизация насыщенности : 4:2:0
Битовая глубина : 8 бит
Тип развёртки : Прогрессивная
Бит/(Пиксели*Кадры) : 0.161
Размер потока : 363 Мбайт (97%)
Заголовок : www.60-fps.org
Библиотека кодирования : x264 core 129 r2245 bc13772
Настройки программы : cabac=1 / ref=5 / deblock=1:-1:-1 / analyse=0x3:0x113 / me=esa / subme=8 / psy=1 / psy_rd=1.00:0.25 / mixed_ref=1 / me_range=32 / chroma_me=1 / trellis=1 / 8x8dct=1 / cqm=0 / deadzone=6,6 / fast_pskip=1 / chroma_qp_offset=-4 / threads=12 / lookahead_threads=2 / sliced_threads=0 / nr=0 / decimate=0 / interlaced=0 / bluray_compat=0 / constrained_intra=0 / bframes=4 / b_pyramid=2 / b_adapt=2 / b_bias=0 / direct=3 / weightb=1 / open_gop=0 / weightp=2 / keyint=599 / keyint_min=59 / scenecut=40 / intra_refresh=0 / rc_lookahead=50 / rc=2pass / mbtree=1 / bitrate=14999 / ratetol=1.0 / qcomp=0.80 / qpmin=0 / qpmax=69 / qpstep=4 / cplxblur=20.0 / qblur=0.5 / ip_ratio=1.50 / aq=1:1.00
Язык : English
Default : Да
Forced : Нет
DURATION : 00:03:27.391000000
NUMBER_OF_FRAMES : 12431
NUMBER_OF_BYTES : 388749155
_STATISTICS_WRITING_APP : mkvmerge v7.6.0 ('Garden of Dreams') 32bit built on Feb 8 2015 12:51:39
_STATISTICS_WRITING_DATE_UTC : 2015-04-02 09:54:42
_STATISTICS_TAGS : BPS DURATION NUMBER_OF_FRAMES NUMBER_OF_BYTES
Аудио
Идентификатор : 2
Формат : AC-3
Формат/Информация : Audio Coding 3
Расширение режима : CM (complete main)
Параметр Endianness формата : Big
Идентификатор кодека : A_AC3
Продолжительность : 3 м. 27 с.
Вид битрейта : Постоянный
Битрейт : 192 Кбит/сек
Каналы : 2 канала
Расположение каналов : Front: L R
Частота : 48,0 КГц
Битовая глубина : 16 бит
Метод сжатия : С потерями
Размер потока : 4,75 Мбайт (1%)
Заголовок : www.60-fps.org
Default : Да
Forced : Нет

Релиз подготовлен 60 - fps

[Цитировать]
izomsk

Спасибо!
хорошая песня.

Первый мой релиз 60fps в сети - только 720р и звук 5.1...

https://nnm-club.me/forum/viewtopic.php?t=456061
 
Показать сообщения:    

Текущее время: 24-Сен 06:13

Часовой пояс: UTC + 3


Вы не можете начинать темы
Вы не можете отвечать на сообщения
Вы не можете редактировать свои сообщения
Вы не можете удалять свои сообщения
Вы не можете голосовать в опросах
Вы не можете прикреплять файлы к сообщениям
Вы не можете скачивать файлы