[Цитировать]
mimok

Лунный свет: Путешествие / Lichtmond: The Journey (2016) BDRip 720p | 60fps«....»- Информация
Название: Лунный свет: Путешествие
Оригинальное название: Lichtmond: The Journey
Год выхода: 2016
Жанр: Анимация, Музыка, Фэнтези, Шоу
Авторы: Giorgio & Martin Koppehele
Участники проекта:
Музыка: Giorgio, Suna, Martin, Gabi Koppehele, Meera Fé, Karen Kassulat, I Muvrini, Roberta Concina
Тексты песен: Gabi, Suna Koppehele, Meera Fé, Roberta Concina
Чтец: Thomas E. Killinger
Стихи: Gabi Koppehele
Хор: Suna & Gabi Koppehele, Meera Fé, Saskia Philipps, Karen Kassulat
Guitars: Manuel Lopez
Keyboards, Synthesizer, Bass, Drums, Струнные, Piano, Organ, Percussion: Martin & Giorgio Koppehele
Описание:
4-й диск братьев Giorgio & Martin Koppehele из серии "Lichtmond".
Чувственное путешествие в фантастические миры - специальный музыкальный проект. Жизнь, как уникальное путешествие по эволюции и трансформации.
Потрясающее путешествие в фэнтези, в лучах лунного света через волшебные звуки. Погрузитесь в неординарную музыку и пусть Ваши экраны превратятся на один час в двери сказочных миров, которые до сих пор Вам не приходилось видеть, но наверняка Вы мечтали о них.
Страна: Германия
Студия: Universal Music, Blu Phase Media GmbH
Продолжительность: 00:53:38
Перевод: Не требуется

Треклист:

01. The Journey Part 1
02. The Journey Part 2
03. Flowing like a River
04. Nothing but Change
05. Mind over Matter
06. Secrets of Life
07. True Destination
08. The World
09. Children (Inner Vision)
10. The Journey Part 3
Файл
Формат: MKV
Кодек: MPEG-4 AVC/H.264
Качество: BDRip 720p
Видео: ~ 12.6 Мбит/сек, 1280 x 720, 59.940 кадров/сек
Аудио#1: AC3 5.1, 48.0 KHz, 640 Кбит/сек - Английский (песни) / Немецкий (стихи)
Аудио#2: AC3 5.1, 48.0 KHz, 640 Кбит/сек - Английский (песни+стихи)

MediaInfo

Общее
Уникальный идентификатор : 171884704787580257847283891679262363754 (0x814FCA3CFF7EF760BD26EE0BB79B506A)
Полное имя : E:\Торренты\Lichtmond. The Journey 60fps.mkv
Формат : Matroska
Версия формата : Version 4 / Version 2
Размер файла : 5,32 Гбайт
Продолжительность : 53 м.
Общий поток : 14,2 Мбит/сек
Дата кодирования : UTC 2016-10-24 16:49:17
Программа кодирования : mkvmerge v6.9.1 ('Blue Panther') 64bit built on Apr 18 2014 18:23:38
Библиотека кодирования : libebml v1.3.0 + libmatroska v1.4.1
Видео
Идентификатор : 1
Формат : AVC
Формат/Информация : Advanced Video Codec
Профиль формата : High@L4.1
Параметр CABAC формата : Да
Параметр ReFrames формата : 6 кадров
Идентификатор кодека : V_MPEG4/ISO/AVC
Продолжительность : 53 м.
Битрейт : 12,6 Мбит/сек
Ширина : 1280 пикселей
Высота : 720 пикселей
Соотношение сторон : 16:9
Режим частоты кадров : Постоянный
Частота кадров : 59,940 (59940/1000) кадров/сек
Цветовое пространство : YUV
Субдискретизация насыщенности : 4:2:0
Битовая глубина : 8 бит
Тип развёртки : Прогрессивная
Бит/(Пиксели*Кадры) : 0.229
Размер потока : 4,73 Гбайт (89%)
Заголовок : Release by mimok
Библиотека кодирования : x264 core 130 r2273 b3065e6
Настройки программы : cabac=1 / ref=6 / deblock=1:0:0 / analyse=0x3:0x133 / me=umh / subme=8 / psy=1 / psy_rd=1.00:0.15 / mixed_ref=1 / me_range=20 / chroma_me=1 / trellis=2 / 8x8dct=1 / cqm=0 / deadzone=21,11 / fast_pskip=0 / chroma_qp_offset=-3 / threads=6 / lookahead_threads=2 / sliced_threads=0 / nr=0 / decimate=0 / interlaced=0 / bluray_compat=0 / constrained_intra=0 / bframes=8 / b_pyramid=2 / b_adapt=2 / b_bias=0 / direct=1 / weightb=1 / open_gop=0 / weightp=2 / keyint=250 / keyint_min=25 / scenecut=40 / intra_refresh=0 / rc=crf / mbtree=0 / crf=17.0 / qcomp=0.63 / qpmin=10 / qpmax=51 / qpstep=4 / ip_ratio=1.40 / pb_ratio=1.30 / aq=2:1.20
Default : Да
Forced : Нет
Аудио #1
Идентификатор : 2
Формат : AC-3
Формат/Информация : Audio Coding 3
Расширение режима : CM (complete main)
Параметр Endianness формата : Big
Идентификатор кодека : A_AC3
Продолжительность : 53 м.
Вид битрейта : Постоянный
Битрейт : 640 Кбит/сек
Каналы : 6 каналов
Расположение каналов : Front: L C R, Side: L R, LFE
Частота : 48,0 КГц
Частота кадров : 31,250 кадров/сек (1536 spf)
Метод сжатия : С потерями
Размер потока : 246 Мбайт (5%)
Заголовок : Eng+Ger
Язык : English
Default : Да
Forced : Нет
Аудио #2
Идентификатор : 3
Формат : AC-3
Формат/Информация : Audio Coding 3
Расширение режима : CM (complete main)
Параметр Endianness формата : Big
Идентификатор кодека : A_AC3
Продолжительность : 53 м.
Вид битрейта : Постоянный
Битрейт : 640 Кбит/сек
Каналы : 6 каналов
Расположение каналов : Front: L C R, Side: L R, LFE
Частота : 48,0 КГц
Частота кадров : 31,250 кадров/сек (1536 spf)
Метод сжатия : С потерями
Размер потока : 246 Мбайт (5%)
Заголовок : Eng+Eng
Язык : English
Default : Нет
Forced : Нет
Скриншоты:

Релиз подготовлен 60 - fps

[60-fps.org].t2359.torrent
Торрент: Зарегистрирован [ 2016-10-30 17:41 ] · D09A5CCC7135AA0E8D3AE78B3B4EF3AC81A05DB2

Скачать .torrent

Скачать

27 KB

Статус: проверено
Скачан: 31 раз
Поблагодарили:
Размер: 5,32 GB
 
Похожие Темы
 
Показать сообщения:    

Текущее время: 27-Мар 19:24

Часовой пояс: UTC + 3


Вы не можете начинать темы
Вы не можете отвечать на сообщения
Вы не можете редактировать свои сообщения
Вы не можете удалять свои сообщения
Вы не можете голосовать в опросах
Вы не можете прикреплять файлы к сообщениям
Вы можете скачивать файлы