[Цитировать]
mimok

Лунный свет / Lichtmond (2010) BDRip 720p | 60fps- Год выпуска: 2010
Производство: Германия / Avenue Music (Alive)
Жанр: Релакс, музыка, документальный, видовой-Режиссер: Giorgio & Martin Koppehele
Музыка и тексты: Giorgio, Suna, Martin & Gabi Koppehele, Meera Fe, Karen Kassulat, Boy George, John Themis, Emily Themis
Стихи читает: Thomas E.Killinger-Описание фильма:
Братья Giorgio & Martin Cope (Avenue Music), авторы пользующейся заслуженной популярностью среди любителей многоканальной музыки, и не только, серии Ambra, представляют новый проект - "Lichtmond" ("Лунный свет").
Альбом в стиле эмбиент-поп, выпущен на трех носителях: CD, DVD и Blu-ray. Визуальная часть на DVD и BD представляет собой анимацию испанского художника-мультипликатора Diego M. Bonati, студия Imago-D - фантастические миры, созданные специально для "Lichtmond"-Перевод: Не требуется
Субтитры: отсутствуют- -Продолжительность: 00:48:47
Качество видео: BDRip 720p-Видеокодек: MPEG-4 AVC/H.264
Битрейт видео: ~ 10,3 Мбит/сек
Размер кадра: 1280 x 720
Аудио: AC3 5.1, 48.0 KHz, 640 Kbps - English-

MediaInfo

Общее
Уникальный идентификатор : 200498635087864791571290938262990985822 (0x96D6A1EC55F9F74E9379C89B3D919A5E)
Полное имя : D:\Торренты\Lichtmond 60fps.mkv
Формат : Matroska
Версия формата : Version 2
Размер файла : 3,80 Гбайт
Продолжительность : 48 м.
Общий поток : 11,1 Мбит/сек
Название фильма : Lichtmond (2010) Blu-Ray 1080p
Дата кодирования : UTC 2014-11-12 17:29:17
Программа кодирования : mkvmerge v6.9.1 ('Blue Panther') 64bit built on Apr 18 2014 18:23:38
Библиотека кодирования : libebml v1.3.0 + libmatroska v1.4.1
Видео
Идентификатор : 1
Формат : AVC
Формат/Информация : Advanced Video Codec
Профиль формата : High@L4.1
Параметр CABAC формата : Да
Параметр ReFrames формата : 6 кадров
Идентификатор кодека : V_MPEG4/ISO/AVC
Продолжительность : 48 м.
Битрейт : 10,3 Мбит/сек
Ширина : 1280 пикселей
Высота : 720 пикселей
Соотношение сторон : 16:9
Режим частоты кадров : Постоянный
Частота кадров : 59,880 кадров/сек
Частота кадров в оригинале : 59,940 кадров/сек
Цветовое пространство : YUV
Субдискретизация насыщенности : 4:2:0
Битовая глубина : 8 бит
Тип развёртки : Прогрессивная
Бит/(Пиксели*Кадры) : 0.186
Размер потока : 3,51 Гбайт (92%)
Заголовок : Release by mimok
Библиотека кодирования : x264 core 125 r2208 d9d2288
Настройки программы : cabac=1 / ref=6 / deblock=0:0:0 / analyse=0x3:0x133 / me=umh / subme=8 / psy=1 / psy_rd=1.00:0.15 / mixed_ref=1 / me_range=20 / chroma_me=1 / trellis=2 / 8x8dct=1 / cqm=0 / deadzone=21,11 / fast_pskip=0 / chroma_qp_offset=-3 / threads=6 / lookahead_threads=1 / sliced_threads=0 / nr=0 / decimate=0 / interlaced=0 / bluray_compat=0 / constrained_intra=0 / bframes=8 / b_pyramid=2 / b_adapt=2 / b_bias=0 / direct=1 / weightb=1 / open_gop=0 / weightp=2 / keyint=600 / keyint_min=59 / scenecut=40 / intra_refresh=0 / rc=crf / mbtree=0 / crf=17.0 / qcomp=0.63 / qpmin=10 / qpmax=51 / qpstep=4 / ip_ratio=1.40 / pb_ratio=1.30 / aq=1:1.20
Default : Да
Forced : Нет
Аудио
Идентификатор : 2
Формат : AC-3
Формат/Информация : Audio Coding 3
Расширение режима : CM (complete main)
Параметр Endianness формата : Big
Идентификатор кодека : A_AC3
Продолжительность : 48 м.
Вид битрейта : Постоянный
Битрейт : 640 Кбит/сек
Каналы : 6 каналов
Расположение каналов : Front: L C R, Side: L R, LFE
Частота : 48,0 КГц
Битовая глубина : 16 бит
Метод сжатия : С потерями
Размер потока : 223 Мбайт (6%)
Язык : English
Default : Да
Forced : Нет

Скринлист

Треклист

1. Erwachen (Пробуждение)
2. Abendrot (Вечерняя заря)
3. Shine On Me
4. Sonnenlicht (Солнечный свет)
5. Flying Over The Ocean
6. Fruhlingstanzerin
7. Philosophy Of Love
8. Ich Und Du (Я и ты)
9. Morgenrot (Рассвет)
10. Der Orangenzweig
11. Fruhlingstanzerin (Single Mix)
12. Wenn Des Mondes Strahl
13. Tal Der Liebe (Долина любви)
14. Sounds Of Distance
15. Serenity
16. Fruhlingstanzerin (Martyn Ware From Human League And Heaven 17 Club Remix)
Скриншоты:
 
Показать сообщения:    

Текущее время: 24-Сен 08:08

Часовой пояс: UTC + 3


Вы не можете начинать темы
Вы не можете отвечать на сообщения
Вы не можете редактировать свои сообщения
Вы не можете удалять свои сообщения
Вы не можете голосовать в опросах
Вы не можете прикреплять файлы к сообщениям
Вы не можете скачивать файлы