[Цитировать]
mimok

Лунный свет 3: Дни вечности / Lichtmond 3: Days of Eternity (2014) BDRip 720p | 60fps- Год выпуска: 2014
Производство: Германия / Blu Phase Media GmbH, IMAGO-D Studios
Жанр: Релакс, музыка, документальный, видовой-Режиссер: Giorgio & Martin Koppehele
Музыка и тексты: Giorgio, Suna, Martin и Gabi Koppehele, Meera Fe, Karen Kassulat, I Muvrini, Midge Ure, Sky du Mont
Стихи читает: Thomas E. Killinger-Описание фильма:
Своим третьим альбомом Lichtmond 3: Days of Eternity братья Giorgio и Martin Koppehele продолжают свой путь путешествием по первозданному миру фантастической планеты Хронос, где время растворяется в эстетике звука и изображения...-Перевод: Не требуется
Субтитры: отсутствуют- -Продолжительность: 00:50:02
Качество видео: BDRip 720p-Видеокодек: MPEG-4 AVC/H.264
Битрейт видео: ~ 10,9 Мбит/сек
Размер кадра: 1280 x 720
Аудио: AC3 2, 48.0 KHz, 640 Kbps - English-

MediaInfo

Общее
Уникальный идентификатор : 176546427769510587237940292516480277710 (0x84D19AED2E409F79883F047FAC37DCCE)
Полное имя : D:\Торренты\Lichtmond 3. Days of Eternity 60fps.mkv
Формат : Matroska
Версия формата : Version 2
Размер файла : 4,13 Гбайт
Продолжительность : 50 м.
Общий поток : 11,8 Мбит/сек
Название фильма : Lichtmond 3: Days of Eternity (2014) Blu-ray 3D 1080p AVC Auro 3D 9.1
Дата кодирования : UTC 2014-11-03 17:27:16
Программа кодирования : mkvmerge v6.9.1 ('Blue Panther') 64bit built on Apr 18 2014 18:23:38
Библиотека кодирования : libebml v1.3.0 + libmatroska v1.4.1
Видео
Идентификатор : 1
Формат : AVC
Формат/Информация : Advanced Video Codec
Профиль формата : High@L4.1
Параметр CABAC формата : Да
Параметр ReFrames формата : 6 кадров
Идентификатор кодека : V_MPEG4/ISO/AVC
Продолжительность : 50 м.
Битрейт : 10,9 Мбит/сек
Ширина : 1280 пикселей
Высота : 720 пикселей
Соотношение сторон : 16:9
Режим частоты кадров : Постоянный
Частота кадров : 59,880 кадров/сек
Частота кадров в оригинале : 59,940 кадров/сек
Цветовое пространство : YUV
Субдискретизация насыщенности : 4:2:0
Битовая глубина : 8 бит
Тип развёртки : Прогрессивная
Бит/(Пиксели*Кадры) : 0.198
Размер потока : 3,82 Гбайт (93%)
Заголовок : Release by mimok
Библиотека кодирования : x264 core 125 r2208 d9d2288
Настройки программы : cabac=1 / ref=6 / deblock=0:0:0 / analyse=0x3:0x133 / me=umh / subme=8 / psy=1 / psy_rd=1.00:0.15 / mixed_ref=1 / me_range=20 / chroma_me=1 / trellis=2 / 8x8dct=1 / cqm=0 / deadzone=21,11 / fast_pskip=0 / chroma_qp_offset=-3 / threads=6 / lookahead_threads=1 / sliced_threads=0 / nr=0 / decimate=0 / interlaced=0 / bluray_compat=0 / constrained_intra=0 / bframes=8 / b_pyramid=2 / b_adapt=2 / b_bias=0 / direct=1 / weightb=1 / open_gop=0 / weightp=2 / keyint=600 / keyint_min=59 / scenecut=40 / intra_refresh=0 / rc=crf / mbtree=0 / crf=17.0 / qcomp=0.63 / qpmin=10 / qpmax=51 / qpstep=4 / ip_ratio=1.40 / pb_ratio=1.30 / aq=1:1.20
Default : Да
Forced : Нет
Аудио
Идентификатор : 2
Формат : AC-3
Формат/Информация : Audio Coding 3
Расширение режима : CM (complete main)
Параметр Endianness формата : Big
Идентификатор кодека : A_AC3
Продолжительность : 50 м.
Вид битрейта : Постоянный
Битрейт : 640 Кбит/сек
Каналы : 2 канала
Расположение каналов : Front: L R
Частота : 48,0 КГц
Битовая глубина : 16 бит
Метод сжатия : С потерями
Размер потока : 229 Мбайт (5%)
Язык : English
Default : Да
Forced : Нет

Скринлист

Треклист

1. Nightflight to Chronos Part 1
2. Nightflight to Chronos Part 2
3. Feel the Spirit
4. Wheel of Time
5. Catching Rainbows
6. Empires of the Past (feat. Sky Du Mont)
7. Days of Eternity (feat. I Muvrini)
8. Space and Beyond
9. Endless Moments (feat. Midge Ure)
Скриншоты:

[Цитировать]
checherukin

Спасибо.А первые части будут?

[Цитировать]
mimok

320Спасибо.А первые части будут?
Будут,но попозже

[Цитировать]
studio4u

опять в 720р?

[Цитировать]
mimok

331опять в 720р?
не опять а снова :sarcastic:
 
Показать сообщения:    

Текущее время: 25-Июл 15:36

Часовой пояс: UTC + 3


Вы не можете начинать темы
Вы не можете отвечать на сообщения
Вы не можете редактировать свои сообщения
Вы не можете удалять свои сообщения
Вы не можете голосовать в опросах
Вы не можете прикреплять файлы к сообщениям
Вы не можете скачивать файлы