[Цитировать]
mimok

Лунный свет 2: Вселенная света / Lichtmond 2: Universe of Light (2012) BDRip 720p | 60fps- Год выпуска: 2012
Производство: Германия / Alive
Жанр: Релакс, музыка, документальный, видовой-Режиссер: Giorgio & Martin Koppehele
Музыка и тексты: Giorgio, Suna, Martin и Gabi Koppehele, Alan Parsons, SubClones, Meera Fe, Karen Kassulat, I Muvrini
Стихи читает: Gabi Koppehele-Описание фильма:
Второй мультимедийный порект "Lichtmond" - Universe of Light (Вселенная света) подготовлен совместно с музыкальной легендой Alan Parsons. Мировая премьера состоялась в Гамбургском Планетарии в сентябре 2012 года - уникальное 360° шоу всех времен и народов. "Выше, быстрее, шире и все в XXL" - путешествие в фэнтези, в лучах лунного света через волшебные звуки, еще более масштабно и профессионально чем в первом фильме. Погрузитесь в неординарную музыку и пусть ваши FullHD экраны превратятся на один час в двери сказочных миров, которые до селе Вам не приходилось видеть, но наверняка вы мечтали о них.-Перевод: Не требуется
Субтитры: отсутствуют- -Продолжительность: 00:50:56
Качество видео: BDRip 720p-Видеокодек: MPEG-4 AVC/H.264
Битрейт видео: ~ 9898 Кбит/сек
Размер кадра: 1280 x 720
Аудио: AC3 5.1, 48.0 KHz, 640 Kbps - German-

MediaInfo

Общее
Уникальный идентификатор : 219418253646645824376349457295075392314 (0xA5126B23196C17658F31F83EB4033B3A)
Полное имя : D:\Торренты\Lichtmond 2. Universe of Light 60fps.mkv
Формат : Matroska
Версия формата : Version 2
Размер файла : 3,83 Гбайт
Продолжительность : 50 м.
Общий поток : 10,8 Мбит/сек
Название фильма : Lichtmond 2: Universe of Light 3D (2012) Blu-Ray 3D 1080p
Дата кодирования : UTC 2014-11-09 18:11:51
Программа кодирования : mkvmerge v6.9.1 ('Blue Panther') 64bit built on Apr 18 2014 18:23:38
Библиотека кодирования : libebml v1.3.0 + libmatroska v1.4.1
Видео
Идентификатор : 1
Формат : AVC
Формат/Информация : Advanced Video Codec
Профиль формата : High@L4.1
Параметр CABAC формата : Да
Параметр ReFrames формата : 6 кадров
Идентификатор кодека : V_MPEG4/ISO/AVC
Продолжительность : 50 м.
Битрейт : 9898 Кбит/сек
Ширина : 1280 пикселей
Высота : 720 пикселей
Соотношение сторон : 16:9
Режим частоты кадров : Постоянный
Частота кадров : 59,880 кадров/сек
Частота кадров в оригинале : 59,940 кадров/сек
Цветовое пространство : YUV
Субдискретизация насыщенности : 4:2:0
Битовая глубина : 8 бит
Тип развёртки : Прогрессивная
Бит/(Пиксели*Кадры) : 0.179
Размер потока : 3,52 Гбайт (92%)
Заголовок : Release by mimok
Библиотека кодирования : x264 core 125 r2208 d9d2288
Настройки программы : cabac=1 / ref=6 / deblock=0:0:0 / analyse=0x3:0x133 / me=umh / subme=8 / psy=1 / psy_rd=1.00:0.15 / mixed_ref=1 / me_range=20 / chroma_me=1 / trellis=2 / 8x8dct=1 / cqm=0 / deadzone=21,11 / fast_pskip=0 / chroma_qp_offset=-3 / threads=6 / lookahead_threads=1 / sliced_threads=0 / nr=0 / decimate=0 / interlaced=0 / bluray_compat=0 / constrained_intra=0 / bframes=8 / b_pyramid=2 / b_adapt=2 / b_bias=0 / direct=1 / weightb=1 / open_gop=0 / weightp=2 / keyint=600 / keyint_min=59 / scenecut=40 / intra_refresh=0 / rc=crf / mbtree=0 / crf=17.0 / qcomp=0.63 / qpmin=10 / qpmax=51 / qpstep=4 / ip_ratio=1.40 / pb_ratio=1.30 / aq=1:1.20
Default : Да
Forced : Нет
Аудио
Идентификатор : 2
Формат : AC-3
Формат/Информация : Audio Coding 3
Расширение режима : CM (complete main)
Параметр Endianness формата : Big
Идентификатор кодека : A_AC3
Продолжительность : 50 м.
Вид битрейта : Постоянный
Битрейт : 640 Кбит/сек
Каналы : 6 каналов
Расположение каналов : Front: L C R, Side: L R, LFE
Частота : 48,0 КГц
Битовая глубина : 16 бит
Метод сжатия : С потерями
Размер потока : 233 Мбайт (6%)
Язык : German
Default : Да
Forced : Нет

Скринлист

Треклист

01. Solar dust [Part 1]
02. Solar dust [Part 2]
03. Soul affinity
04. Distant dream
05. Universe of light
06. Magic forest
07. Precious life (feat. Alan Parsons & the SubClones)
08. Star suite
09. State of mind
10. Shadow play:
• Mystic eyes
• Moments of joy (feat. I Muvrini)
• Lunar dust
• Precious life (Single Mix) (feat. Alan Parsons & the SubClones)
Скриншоты:
 
Показать сообщения:    

Текущее время: 07-Дек 19:24

Часовой пояс: UTC + 3


Вы не можете начинать темы
Вы не можете отвечать на сообщения
Вы не можете редактировать свои сообщения
Вы не можете удалять свои сообщения
Вы не можете голосовать в опросах
Вы не можете прикреплять файлы к сообщениям
Вы не можете скачивать файлы