1. Longevity:
    4 years 8 months
    Posts:
    319
    Gender:
    Male
    Заказать фильмы, клипы или любое другое видео в качестве 60fps может каждый!!!
    Стоимость одного видео 50руб. !!!
    Пишите Талямба в личку, всё обсудите...
    Лука / Luca (2021) BDRemux 1080p | 60 fps Информация
    Название: Лука
    Оригинальное название: Luca
    Год выхода: 2021
    Жанр: Мультфильм, фэнтези, комедия, приключения, семейный
    Режиссер: Энрико Касароса
    В ролях: Джейкоб Тремблей, Джек Дилан Грейзер, Саша Барон Коэн, Майя Рудольф, Джакомо Джианниотти, Джим Гэффиган, Сэнди Мартин, Эмма Берман, Франческа Фанти, Джино Д'Акампо, Марко Барричелли, Саверио Раймондо, Марина Массирони, Джузеппе Россо
    Страна: США
    Продолжительность: 1 ч. 35 м. 15 с.
    -- Сюжет:
    Море, солнце, мопеды и охлаждающее джелато — так в одном из прибрежных городков итальянской Ривьеры проходят летние каникулы мальчика по имени Лука. В компании нового друга Альберто он проводит жаркие дни, наполненные удивительными событиями. Приключения Луки омрачает лишь то, что они с Альберто — монстры из морских глубин, на которых охотятся все рыбаки города. -- Файл
    Кодек: V_MPEG4/ISO/AVC
    Формат: MKV
    Качество: BDRemux 1080p | 60 fps
    Видео: 1920 x 1032 (1,85:1) | 59.940 fps | 35.0 Мбит/сек
    Аудио 1: 48 kHz, AC3, 5.1, 384 Kbps | DUB, iTunes | RUS |
    Аудио 2: 48 kHz, TrueHD, 7.1, 6071 Kbps | Оригинал | ENG |
    Аудио 3: 48 kHz, AC3, 5.1, 640 Kbps | Оригинал | ENG |

    MedifInfo

    Общее
    Уникальный идентификатор : 180568877116490301207962411858725997929 (0x87D84CFDB5AED433853F74C42CF88D69)
    Полное имя : D:\Mult\Лука.2021.BDREMUX.1080p.60fps.mkv
    Формат : Matroska
    Версия формата : Version 2
    Размер файла : 28,0 Гбайт
    Продолжительность : 1 ч. 35 м.
    Режим общего битрейта : Переменный
    Общий поток : 42,0 Мбит/сек
    Название фильма : Лука / Luca (2021) BDRemux 1080p https://60-fps.org
    Дата кодирования : UTC 2021-09-04 00:10:04
    Программа кодирования : mkvmerge v5.8.0 ('No Sleep / Pillow') built on Sep 2 2012 15:37:04
    Библиотека кодирования : libebml v1.2.3 + libmatroska v1.3.0
    Attachments : Poster
    Видео
    Идентификатор : 1
    Формат : AVC
    Формат/Информация : Advanced Video Codec
    Профиль формата : [email protected]
    Параметр CABAC формата : Да
    Параметр ReFrames формата : 4 кадра
    Режим смешивания : Header stripping
    Идентификатор кодека : V_MPEG4/ISO/AVC
    Продолжительность : 1 ч. 35 м.
    Номинальный битрейт : 35,0 Мбит/сек
    Ширина : 1920 пикселей
    Высота : 1032 пикселя
    Соотношение сторон : 1,85:1
    Режим частоты кадров : Постоянный
    Частота кадров : 59,940 (60000/1001) кадров/сек
    Цветовое пространство : YUV
    Субдискретизация насыщенности : 4:2:0
    Битовая глубина : 8 бит
    Тип развёртки : Прогрессивная
    Бит/(Пиксели*Кадры) : 0.295
    Библиотека кодирования : x264 core 146 r2538 121396c
    Настройки программы : cabac=1 / ref=4 / deblock=1:0:0 / analyse=0x3:0x113 / me=umh / subme=8 / psy=1 / psy_rd=1.00:0.25 / mixed_ref=1 / me_range=32 / chroma_me=1 / trellis=1 / 8x8dct=1 / cqm=0 / deadzone=6,6 / fast_pskip=1 / chroma_qp_offset=-4 / threads=12 / lookahead_threads=3 / sliced_threads=0 / nr=0 / decimate=0 / interlaced=0 / bluray_compat=0 / constrained_intra=0 / bframes=3 / b_pyramid=2 / b_adapt=2 / b_bias=0 / direct=3 / weightb=1 / open_gop=0 / weightp=2 / keyint=600 / keyint_min=60 / scenecut=40 / intra_refresh=0 / rc_lookahead=50 / rc=2pass / mbtree=1 / bitrate=35000 / ratetol=1.0 / qcomp=0.80 / qpmin=0 / qpmax=69 / qpstep=4 / cplxblur=20.0 / qblur=0.5 / vbv_maxrate=50000 / vbv_bufsize=50000 / nal_hrd=none / filler=0 / ip_ratio=1.10 / aq=1:0.50
    Язык : English
    Default : Да
    Forced : Нет
    Аудио #1
    Идентификатор : 2
    Формат : AC-3
    Формат/Информация : Audio Coding 3
    Расширение режима : CM (complete main)
    Параметр Endianness формата : Big
    Режим смешивания : Header stripping
    Идентификатор кодека : A_AC3
    Продолжительность : 1 ч. 35 м.
    Вид битрейта : Постоянный
    Битрейт : 384 Кбит/сек
    Каналы : 6 каналов
    Расположение каналов : Front: L C R, Side: L R, LFE
    Частота : 48,0 КГц
    Частота кадров : 31,250 кадров/сек (1536 spf)
    Битовая глубина : 16 бит
    Метод сжатия : С потерями
    Размер потока : 262 Мбайт (1%)
    Заголовок : iTunes
    Язык : Russian
    Default : Да
    Forced : Да
    Statistics Tags Issue : mkvmerge v59.0.0 ('Shining Star') 64-bit 2021-09-02 21:15:27 / mkvmerge v5.8.0 ('No Sleep / Pillow') built on Sep 2 2012 15:37:04 2021-09-04 00:10:04
    FromStats_BitRate : 384000
    FromStats_Duration : 01:35:15.136000000
    FromStats_FrameCount : 178598
    FromStats_StreamSize : 274326528
    Аудио #2
    Идентификатор : 3
    Формат : Atmos / TrueHD
    Идентификатор кодека : A_TRUEHD
    Вид битрейта : Переменный
    Максимальный битрейт : 5985 Кбит/сек
    Каналы : Object Based / 8 каналов
    Расположение каналов : Object Based / Front: L C R, Side: L R, Back: L R, LFE
    Частота : / 48,0 КГц
    Частота кадров : 1200,000 кадров/сек (40 spf)
    Метод сжатия : Без потерь
    Заголовок : Original
    Язык : English
    Default : Нет
    Forced : Нет
    Аудио #3
    Идентификатор : 4
    Формат : AC-3
    Формат/Информация : Audio Coding 3
    Расширение режима : CM (complete main)
    Параметр Endianness формата : Big
    Режим смешивания : Header stripping
    Идентификатор кодека : A_AC3
    Продолжительность : 1 ч. 35 м.
    Вид битрейта : Постоянный
    Битрейт : 640 Кбит/сек
    Каналы : 6 каналов
    Расположение каналов : Front: L C R, Side: L R, LFE
    Частота : 48,0 КГц
    Частота кадров : 31,250 кадров/сек (1536 spf)
    Битовая глубина : 16 бит
    Метод сжатия : С потерями
    Размер потока : 436 Мбайт (2%)
    Язык : English
    Default : Нет
    Forced : Нет
    Statistics Tags Issue : mkvmerge v59.0.0 ('Shining Star') 64-bit 2021-09-02 21:15:27 / mkvmerge v5.8.0 ('No Sleep / Pillow') built on Sep 2 2012 15:37:04 2021-09-04 00:10:04
    FromStats_BitRate : 640000
    FromStats_Duration : 01:35:14.976000000
    FromStats_FrameCount : 178593
    FromStats_StreamSize : 457198080
    Текст #1
    Идентификатор : 5
    Формат : UTF-8
    Идентификатор кодека : S_TEXT/UTF8
    Идентификатор кодека/Информация : UTF-8 Plain Text
    Заголовок : Forced
    Язык : Russian
    Default : Да
    Forced : Да
    Statistics Tags Issue : mkvmerge v59.0.0 ('Shining Star') 64-bit 2021-09-02 21:15:27 / mkvmerge v5.8.0 ('No Sleep / Pillow') built on Sep 2 2012 15:37:04 2021-09-04 00:10:04
    FromStats_BitRate : 0
    FromStats_Duration : 01:20:33.834000000
    FromStats_FrameCount : 6
    FromStats_StreamSize : 87
    Текст #2
    Идентификатор : 6
    Формат : UTF-8
    Идентификатор кодека : S_TEXT/UTF8
    Идентификатор кодека/Информация : UTF-8 Plain Text
    Заголовок : Full
    Язык : Russian
    Default : Нет
    Forced : Нет
    Statistics Tags Issue : mkvmerge v59.0.0 ('Shining Star') 64-bit 2021-09-02 21:15:27 / mkvmerge v5.8.0 ('No Sleep / Pillow') built on Sep 2 2012 15:37:04 2021-09-04 00:10:04
    FromStats_BitRate : 83
    FromStats_Duration : 01:33:30.360000000
    FromStats_FrameCount : 1304
    FromStats_StreamSize : 58904
    Текст #3
    Идентификатор : 7
    Формат : UTF-8
    Идентификатор кодека : S_TEXT/UTF8
    Идентификатор кодека/Информация : UTF-8 Plain Text
    Заголовок : Full
    Язык : English
    Default : Нет
    Forced : Нет
    Statistics Tags Issue : mkvmerge v59.0.0 ('Shining Star') 64-bit 2021-09-02 21:15:27 / mkvmerge v5.8.0 ('No Sleep / Pillow') built on Sep 2 2012 15:37:04 2021-09-04 00:10:04
    FromStats_BitRate : 58
    FromStats_Duration : 01:33:30.385000000
    FromStats_FrameCount : 1548
    FromStats_StreamSize : 40833
    Меню
    00:00:00.000 : en:Prologue
    00:02:27.898 : en:Meet Luca
    00:06:27.220 : en:Family Lunch
    00:08:29.884 : en:Meet Alberto
    00:11:19.512 : en:World Above
    00:14:35.291 : en:Alberto's Hideout
    00:16:30.197 : en:Paranoid
    00:17:07.735 : en:Best Friends
    00:21:19.486 : en:Rooftop
    00:23:31.994 : en:Busted
    00:26:01.393 : en:Running Away
    00:28:11.815 : en:Vespatown
    00:32:55.515 : en:Meet Giulia
    00:35:39.971 : en:Bike Test
    00:37:29.372 : en:Massimo Dinner
    00:41:38.204 : en:Parents Arrive
    00:42:25.876 : en:Massimo Chores
    00:45:04.118 : en:Wrong Kid
    00:46:06.680 : en:Signing Up
    00:48:53.639 : en:Close Call
    00:51:00.098 : en:Soccer Mom
    00:52:04.746 : en:Telescope
    00:54:33.562 : en:Saturn Dream
    00:56:18.834 : en:Vespa Gazing
    00:58:30.340 : en:Race Training
    01:00:07.520 : en:Spotted
    01:00:43.598 : en:Wipeout
    01:02:10.059 : en:Splash
    01:04:51.929 : en:Without Alberto
    01:06:49.088 : en:Reconciliation
    01:09:33.836 : en:Race Begins
    01:13:19.978 : en:Bike Race
    01:16:47.477 : en:Finish Line
    01:19:33.476 : en:Giulia Packing
    01:20:53.723 : en:Parting Ways
    01:24:34.944 : en:Credits
    01:33:41.532 : en:In The Deep

    Release was prepared by 60-fps.org



You cannot post new topics in this forum
You cannot reply to topics in this forum
You cannot edit your posts in this forum
You cannot delete your posts in this forum
You cannot vote in polls in this forum
You cannot attach files in this forum
You cannot download files in this forum