1. Longevity:
    4 years 10 months
    Posts:
    336
    Gender:
    Male
    -Lost Frequencies - Reality (feat Janieck Devy) (2015) MasterRip 1080p | 60 fps- -Информация
    Исполнитель: Lost Frequencies
    Название: Reality
    Год выхода: 2015
    Продолжительность: 00:02:44-Файл
    Кодек: MPEG4 | ISO/AVC | H.264 | High@L4.2
    Формат: MKV
    Качество: MasterRip 1080p | 60 fps
    Видео : 1920 x 816 (2,35:1) | 60,000 fps 30.0 Мбит/сек
    Аудио 1: AAC | 512 Кбит/сек | 44.1 KHz | 5.1 channels
    Аудио 2: AC3 | 640 Кбит/сек | 44.1 KHz | 5.1 channels
    Аудио 3: DTS | 1025 Кбит/сек | 44.1 KHz | 5.1 channels

    MediaInfo

    Общее
    Уникальный идентификатор : 236485268677305419651509964586802402487 (0xB1E967F1EC64D368B0D23DE8608ED4B7)
    Полное имя : H:\Clips\Lost Frequencies - Reality (feat Janieck Devy).1080p.60fps.mkv
    Формат : Matroska
    Версия формата : Version 2
    Размер файла : 625 Мбайт
    Продолжительность : 2 м. 44 с.
    Общий поток : 31,8 Мбит/сек
    Дата кодирования : UTC 2021-02-06 17:02:47
    Программа кодирования : mkvmerge v5.8.0 ('No Sleep / Pillow') built on Sep 2 2012 15:37:04
    Библиотека кодирования : libebml v1.2.3 + libmatroska v1.3.0
    Attachments : Poster.jpg
    Видео
    Идентификатор : 1
    Формат : AVC
    Формат/Информация : Advanced Video Codec
    Профиль формата : High@L4.1
    Параметр CABAC формата : Да
    Параметр ReFrames формата : 5 кадров
    Режим смешивания : Header stripping
    Идентификатор кодека : V_MPEG4/ISO/AVC
    Продолжительность : 2 м. 44 с.
    Номинальный битрейт : 30,0 Мбит/сек
    Ширина : 1920 пикселей
    Высота : 816 пикселей
    Соотношение сторон : 2,35:1
    Режим частоты кадров : Постоянный
    Частота кадров : 60,000 кадров/сек
    Цветовое пространство : YUV
    Субдискретизация насыщенности : 4:2:0
    Битовая глубина : 8 бит
    Тип развёртки : Прогрессивная
    Бит/(Пиксели*Кадры) : 0.319
    Библиотека кодирования : x264 core 146 r2538 121396c
    Настройки программы : cabac=1 / ref=5 / deblock=1:0:0 / analyse=0x3:0x113 / me=tesa / subme=11 / psy=1 / psy_rd=1.00:0.25 / mixed_ref=1 / me_range=24 / chroma_me=1 / trellis=2 / 8x8dct=1 / cqm=0 / deadzone=6,6 / fast_pskip=0 / chroma_qp_offset=-4 / threads=12 / lookahead_threads=3 / sliced_threads=0 / nr=0 / decimate=0 / interlaced=0 / bluray_compat=0 / constrained_intra=0 / bframes=16 / b_pyramid=2 / b_adapt=2 / b_bias=0 / direct=3 / weightb=1 / open_gop=0 / weightp=2 / keyint=600 / keyint_min=60 / scenecut=40 / intra_refresh=0 / rc_lookahead=60 / rc=2pass / mbtree=1 / bitrate=30000 / ratetol=1.0 / qcomp=0.80 / qpmin=0 / qpmax=69 / qpstep=4 / cplxblur=20.0 / qblur=0.5 / vbv_maxrate=50000 / vbv_bufsize=50000 / nal_hrd=none / filler=0 / ip_ratio=1.10 / aq=1:0.50
    Язык : English
    Default : Да
    Forced : Нет
    Аудио #1
    Идентификатор : 2
    Формат : AAC
    Формат/Информация : Advanced Audio Codec
    Профиль формата : LC
    Идентификатор кодека : A_AAC
    Продолжительность : 2 м. 44 с.
    Каналы : 6 каналов
    Расположение каналов : Front: L C R, Side: L R, LFE
    Частота : 44,1 КГц
    Частота кадров : 43,066 кадра/сек (1024 spf)
    Метод сжатия : С потерями
    Default : Да
    Forced : Нет
    Аудио #2
    Идентификатор : 3
    Формат : AC-3
    Формат/Информация : Audio Coding 3
    Расширение режима : CM (complete main)
    Параметр Endianness формата : Big
    Режим смешивания : Header stripping
    Идентификатор кодека : A_AC3
    Продолжительность : 2 м. 44 с.
    Вид битрейта : Постоянный
    Битрейт : 640 Кбит/сек
    Каналы : 6 каналов
    Расположение каналов : Front: L C R, Side: L R, LFE
    Частота : 44,1 КГц
    Частота кадров : 28,711 кадров/сек (1536 spf)
    Битовая глубина : 16 бит
    Метод сжатия : С потерями
    Размер потока : 12,6 Мбайт (2%)
    Default : Нет
    Forced : Нет
    Аудио #3
    Идентификатор : 4
    Формат : DTS
    Формат/Информация : Digital Theater Systems
    Режим : 16
    Параметр Endianness формата : Big
    Режим смешивания : Header stripping
    Идентификатор кодека : A_DTS
    Продолжительность : 2 м. 44 с.
    Вид битрейта : Постоянный
    Битрейт : 1025 Кбит/сек
    Каналы : 6 каналов
    Расположение каналов : Front: L C R, Side: L R, LFE
    Частота : 44,1 КГц
    Частота кадров : 86,133 кадров/сек (512 spf)
    Битовая глубина : 16 бит
    Метод сжатия : С потерями
    Размер потока : 20,1 Мбайт (3%)
    Default : Нет
    Forced : Нет

    Release was prepared by 60-fps.org



You cannot post new topics in this forum
You cannot reply to topics in this forum
You cannot edit your posts in this forum
You cannot delete your posts in this forum
You cannot vote in polls in this forum
You cannot attach files in this forum
You cannot download files in this forum