[Цитировать]
izomsk

Лолита / Lolita (1997) BDRip 720p 60fps«Watch it and make up your own mind»- Год выпуска: 1997
Жанр: Драма, Мелодрама
Описание фильма:
Преподаватель французской литературы Гумберт — европеец англо-швейцарского происхождения — приезжает в маленький американский городок в Новой Англии. Он хорошо воспитан, образован, остроумен и пользуется успехом у женщин.
Но его душа больна воспоминаниями о первой любви. И, встретив 12-летнюю Лолиту, Гумберт надеется вновь обрести потерянный рай…
Режиссер: Эдриан Лайн
Актеры: Джереми Айронс, Доминик Суэйн, Мелани Гриффит, Фрэнк Ланджелла, Сюзанн Шеперд, Кит Реддин, Эрин Дж. Дин, Джоан Гловер, Пэт Пьер Перкинс, Эд Грейди
Дата мировой премьеры: 27 сентября 1997
Дата российской премьеры: Февраль 1998
Дата выхода DVD релиза: 10 июля 2008
Продолжительность: 02:17:40
Качество видео: BDRip
Перевод: Многоголосый закадровый, Дублированный
Вид субтитров: Вшитые, отключаемые

Видеокодек: MPEG-4 AVC/H.264
Видео: 1280x688 pixels, ~6 287 Kbps, High@L4.1, 59.940 fps
Аудио1: Русский Dolby Digital 5.1 (448 kbps) |Многоголосый закадровый - Twister|
Аудио2: Русский Dolby Digital 1.0 (192 kbps) |Дубляж|
Аудио3: English DTS 5.1, ~1509 kbps

Про релиз:

Видео отрендерено в 60 (59.94=23.976*5/2) кадров в секунду (fps) с обрезкой черных полей.
Сохранена навигация по сценам.
Звуковые дорожки перенесены без изменений.
Для проверки совместимости с планшетами, медиа- и ТВ-плеерами качаем сэмпл!
Приятного просмотра!

Знаете ли вы, что...

Фильм снят по мотивам романа Владимира Набокова «Лолита» (Lolita: написан на английском языке и опубликован в 1955 году; в 1967 году был выпущен перевод романа на русский, который выполнил сам автор).
В совместных сценах между Доминик Суэйн и Джереми Айронсом всегда прокладывали незаметную подушку. А в интимных сценах актрису подменяла дублерша.
На роль Лолиты прошли пробы свыше 2500 актрис, включая Кристину Риччи и Мелиссу Джоан Харт.
На роль Лолиты также претендовала Натали Портман, однако она отказалась из-за того, что родители были против, да и сама она не горела желанием «целоваться со стариком»…
Гумберта мог сыграть Дастин Хоффман.
Куилти мог сыграть Жерар Депардье.
В Австралии фильм вначале побоялись выпустить — из-за опасности возможного всплеска педофилии. Он вышел в прокат лишь в 1999-м, с жестким цензом R.

Mediainfo:

General
Unique ID : 217049037037581903158741722532668473940 (0xA34A1FBD5B67CA3991DC1CFD74B38254)
Complete name : E:\Video\HD video\Lolita1997\Lolita (1997) BDRip 720p 60fps.mkv
Format : Matroska
Format version : Version 2
File size : 7.55 GiB
Duration : 2h 17mn
Overall bit rate : 7 851 Kbps
Movie name : Lolita1997.Title1101.BlurayRip
Encoded date : UTC 2014-12-07 16:11:39
Writing application : mkvmerge v3.4.0 ('Rapunzel') сборка от May 18 2010 22:32:11
Writing library : libebml v0.8.0 + libmatroska v0.9.0
Video
ID : 1
Format : AVC
Format/Info : Advanced Video Codec
Format profile : High@L4.1
Format settings, CABAC : Yes
Format settings, ReFrames : 7 frames
Codec ID : V_MPEG4/ISO/AVC
Bit rate : 6 287 Kbps
Width : 1 280 pixels
Height : 688 pixels
Display aspect ratio : 1.85:1
Frame rate mode : Variable
Original frame rate : 59.940 fps
Color space : YUV
Chroma subsampling : 4:2:0
Bit depth : 8 bits
Scan type : Progressive
Title : Rip y izomsk
Writing library : x264 core 120 r2120kMod 0c7dab9
Encoding settings : cabac=1 / ref=7 / deblock=1:0:0 / analyse=0x3:0x113 / me=umh / subme=8 / psy=1 / fade_compensate=0.00 / psy_rd=1.00:0.00 / mixed_ref=1 / me_range=30 / chroma_me=1 / trellis=2 / 8x8dct=1 / cqm=0 / deadzone=21,11 / fast_pskip=0 / chroma_qp_offset=-2 / threads=6 / sliced_threads=1 / slices=6 / nr=0 / decimate=1 / interlaced=0 / bluray_compat=0 / constrained_intra=0 / bframes=9 / b_pyramid=2 / b_adapt=2 / b_bias=0 / direct=1 / weightb=1 / open_gop=0 / weightp=2 / keyint=600 / keyint_min=59 / scenecut=40 / intra_refresh=0 / rc=crf / mbtree=0 / crf=17.0000 / qcomp=0.60 / qpmin=10 / qpmax=51 / qpstep=4 / ip_ratio=1.40 / pb_ratio=1.30 / aq=1:1.00
Language : English
Default : No
Forced : No
Audio #1
ID : 2
Format : AC-3
Format/Info : Audio Coding 3
Mode extension : CM (complete main)
Format settings, Endianness : Big
Codec ID : A_AC3
Duration : 2h 17mn
Bit rate mode : Constant
Bit rate : 192 Kbps
Channel(s) : 1 channel
Channel positions : Front: C
Sampling rate : 48.0 KHz
Bit depth : 16 bits
Compression mode : Lossy
Delay relative to video : 560ms
Stream size : 189 MiB (2%)
Title : Русский Многоголосый закадровый - Twister
Language : Russian
Default : Yes
Forced : Yes
Audio #2
ID : 3
Format : AC-3
Format/Info : Audio Coding 3
Mode extension : CM (complete main)
Format settings, Endianness : Big
Codec ID : A_AC3
Duration : 2h 17mn
Bit rate mode : Constant
Bit rate : 448 Kbps
Channel(s) : 6 channels
Channel positions : Front: L C R, Side: L R, LFE
Sampling rate : 48.0 KHz
Bit depth : 16 bits
Compression mode : Lossy
Delay relative to video : 560ms
Stream size : 441 MiB (6%)
Title : Русский Дубляж
Language : Russian
Default : No
Forced : No
Audio #3
ID : 4
Format : DTS
Format/Info : Digital Theater Systems
Mode : 16
Format settings, Endianness : Big
Codec ID : A_DTS
Duration : 2h 17mn
Bit rate mode : Constant
Bit rate : 768 Kbps
Channel(s) : 6 channels
Channel positions : Front: L C R, Side: L R, LFE
Sampling rate : 48.0 KHz
Bit depth : 24 bits
Compression mode : Lossy
Delay relative to video : 560ms
Stream size : 756 MiB (10%)
Title : English
Language : English
Default : No
Forced : No
Text
ID : 5
Format : VobSub
Muxing mode : zlib
Codec ID : S_VOBSUB
Codec ID/Info : The same subtitle format used on DVDs
Title : Русские
Language : Russian
Default : No
Forced : No
Menu
00:00:00.000 : en:(01)00:00:00:000
00:09:26.500 : en:(02)00:09:26:500
00:19:31.875 : en:(03)00:19:31:875
00:27:41.458 : en:(04)00:27:41:458
00:35:54.916 : en:(05)00:35:54:916
00:44:44.208 : en:(06)00:44:44:208
00:52:00.916 : en:(07)00:52:00:916
01:00:32.375 : en:(08)01:00:32:375
01:09:01.000 : en:(09)01:09:01:000
01:17:14.083 : en:(10)01:17:14:083
01:22:59.708 : en:(11)01:22:59:708
01:27:44.000 : en:(12)01:27:44:000
01:35:53.916 : en:(13)01:35:53:916
01:43:08.625 : en:(14)01:43:08:625
01:50:24.625 : en:(15)01:50:24:625
02:01:13.083 : en:(16)02:01:13:083
02:10:06.250 : en:(17)02:10:06:250
02:12:36.708 : en:(18)02:12:36:708
02:17:39.041 : en:(19)02:17:39:041
Скриншоты:Время раздачи: До пяти сидов...

[Цитировать]
mimok

неуж ей 12 лет :spiteful:

[Цитировать]
izomsk

конечно нет...
поправь раздачу пожалуйста.

[Цитировать]
mimok

1031конечно нет...
поправь раздачу пожалуйста.
постер поправил,а так вроде всё норм

[Цитировать]
izomsk

А разве горизонтальные постеры запрещены? или это связано с лентой?

[Цитировать]
Kryl

1033А разве горизонтальные постеры запрещены? или это связано с лентой?
Да , с лентой ...

[Цитировать]
izomsk

Понятно.
 
Показать сообщения:    

Текущее время: 03-Дек 16:42

Часовой пояс: UTC + 3


Вы не можете начинать темы
Вы не можете отвечать на сообщения
Вы не можете редактировать свои сообщения
Вы не можете удалять свои сообщения
Вы не можете голосовать в опросах
Вы не можете прикреплять файлы к сообщениям
Вы не можете скачивать файлы