VIP

Интерстеллар / Interstellar (2014) BDRip 1080p | IMAX Edition | 60fps Проект Power / Project Power (2020) WEBRip 1080p | 60 fps Новые мутанты / The New Mutants (2020) BDRip 1080p | 60 fps Доктор Стрэндж / Doctor Strange (2016) BDRip 1080p | 60 fps Грань будущего / Edge of Tomorrow (2014) BDRip 1080p | 60 fps Бессмертная гвардия / The Old Guard (2020) WEBRip 1080p | 60 fps Тор: Рагнарёк / Thor: Ragnarok (2017) BDRip 1080p | 60 fps Люси / Lucy (2014) BDRip 1080p | 60 fps
  1. Longevity:
    6 years 5 months
    Posts:
    2414
    Gender:
    Male
    «Его время пришло»- Информация
    Название: Логан
    Оригинальное название: Logan
    Год выхода: 2016
    Жанр: Фантастика, боевик, триллер, драма
    Режиссер: Джеймс Мэнголд
    Сценарий: Джеймс Мэнголд, Скотт Фрэнк, Майкл Грин
    Продюсер: Джозеф М. Карачиоло мл., Саймон Кинберг, Стэн Ли
    В ролях: Хью Джекман, Патрик Стюарт, Дафни Кин, Бойд Холбрук, Стивен Мерчант, Элизабет Родригес, Ричард Э. Грант, Эрик Ла Салль, Элиз Нил, Куинси Фаус
    --Сюжет:
    В недалеком будущем уставший от жизни Логан заботится о больном профессоре Икс, который прячется неподалеку от мексиканской границы. Но Логан больше не сможет скрывать свое прошлое, когда встретится с юным мутантом, которого преследуют темные силы.
    - Страна: США
    Продолжительность: 02:17:45

    Файл
    Кодек: MPEG4/ISO/AVC/H.264
    Формат: MKV
    Качество: BDRip 720p | 60 fps
    Видео: 1280 x 532 (2.406) | 59.940 fps | 10.0 Мбит/сек
    Аудио 1: AC3 | 5.1 | 48 kHz | 384 kbps | 16 bit | Дубляж - iTunes |
    Аудио 2: AC3 | 5.1 | 48 kHz | 640 kbps | 16 bit | Paradox&Omskbird Records |
    Аудио 3: AC3 | 5.1 | 48 kHz | 640 kbps | 16 bit | Авторский - Михаил Чадов |
    Аудио 4: AC3 | 5.1 | 48 kHz | 640 kbps | 16 bit | English |
    Субтитры: Русские (forced, full), украинские, английские

    MedifInfo

    Видео
    Идентификатор : 1
    Формат : AVC
    Формат/Информация : Advanced Video Codec
    Профиль формата : [email protected]
    Параметр CABAC формата : Да
    Параметр ReFrames формата : 3 кадра
    Идентификатор кодека : V_MPEG4/ISO/AVC
    Продолжительность : 2 ч. 17 м.
    Вид битрейта : Переменный
    Битрейт : 9563 Кбит/сек
    Максимальный битрейт : 10000 Кбит/сек
    Ширина : 1280 пикселей
    Высота : 532 пикселя
    Соотношение сторон : 2,40:1
    Режим частоты кадров : Постоянный
    Частота кадров : 59,880 кадров/сек
    Частота кадров в оригинале : 59,940 кадров/сек
    Стандарт вещания : PAL
    Цветовое пространство : YUV
    Субдискретизация насыщенности : 4:2:0
    Битовая глубина : 8 бит
    Тип развёртки : Прогрессивная
    Бит/(Пиксели*Кадры) : 0.235
    Размер потока : 9,18 Гбайт (79%)
    Заголовок : www.60-fps.org
    Язык : English
    Default : Да
    Forced : Нет
    Основные цвета : BT.601 NTSC
    Характеристики трансфера : BT.601
    Коэффициенты матрицы : BT.601
    colour_range : Limited
    Аудио #1
    Идентификатор : 2
    Формат : AC-3
    Формат/Информация : Audio Coding 3
    Расширение режима : CM (complete main)
    Параметр Endianness формата : Big
    Идентификатор кодека : A_AC3
    Продолжительность : 2 ч. 17 м.
    Вид битрейта : Постоянный
    Битрейт : 384 Кбит/сек
    Каналы : 6 каналов
    Расположение каналов : Front: L C R, Side: L R, LFE
    Частота : 48,0 КГц
    Битовая глубина : 16 бит
    Метод сжатия : С потерями
    Размер потока : 377 Мбайт (3%)
    Заголовок : Дубляж - iTunes
    Язык : Russian
    Default : Да
    Forced : Нет
    Аудио #2
    Идентификатор : 3
    Формат : AC-3
    Формат/Информация : Audio Coding 3
    Расширение режима : CM (complete main)
    Параметр Endianness формата : Big
    Идентификатор кодека : A_AC3
    Продолжительность : 2 ч. 17 м.
    Вид битрейта : Постоянный
    Битрейт : 640 Кбит/сек
    Каналы : 6 каналов
    Расположение каналов : Front: L C R, Side: L R, LFE
    Частота : 48,0 КГц
    Битовая глубина : 16 бит
    Метод сжатия : С потерями
    Размер потока : 629 Мбайт (5%)
    Заголовок : Paradox&Omskbird Records
    Язык : Russian
    Default : Нет
    Forced : Нет
    Аудио #3
    Идентификатор : 4
    Формат : AC-3
    Формат/Информация : Audio Coding 3
    Расширение режима : CM (complete main)
    Параметр Endianness формата : Big
    Идентификатор кодека : A_AC3
    Продолжительность : 2 ч. 17 м.
    Вид битрейта : Постоянный
    Битрейт : 640 Кбит/сек
    Каналы : 6 каналов
    Расположение каналов : Front: L C R, Side: L R, LFE
    Частота : 48,0 КГц
    Битовая глубина : 16 бит
    Метод сжатия : С потерями
    Размер потока : 629 Мбайт (5%)
    Заголовок : Авторский - Михаил Чадов
    Язык : Russian
    Default : Нет
    Forced : Нет
    Аудио #4
    Идентификатор : 5
    Формат : AC-3
    Формат/Информация : Audio Coding 3
    Расширение режима : CM (complete main)
    Параметр Endianness формата : Big
    Идентификатор кодека : A_AC3
    Продолжительность : 2 ч. 17 м.
    Вид битрейта : Постоянный
    Битрейт : 640 Кбит/сек
    Каналы : 6 каналов
    Расположение каналов : Front: L C R, Side: L R, LFE
    Частота : 48,0 КГц
    Битовая глубина : 16 бит
    Метод сжатия : С потерями
    Размер потока : 629 Мбайт (5%)
    Заголовок : eng
    Язык : English
    Default : Нет
    Forced : Нет
    Текст #1
    Идентификатор : 6
    Формат : UTF-8
    Идентификатор кодека : S_TEXT/UTF8
    Идентификатор кодека/Информация : UTF-8 Plain Text
    Заголовок : Forced
    Язык : Russian
    Default : Да
    Forced : Нет
    Текст #2
    Идентификатор : 7
    Формат : UTF-8
    Идентификатор кодека : S_TEXT/UTF8
    Идентификатор кодека/Информация : UTF-8 Plain Text
    Заголовок : Full
    Язык : Russian
    Default : Нет
    Forced : Нет
    Текст #3
    Идентификатор : 8
    Формат : UTF-8
    Идентификатор кодека : S_TEXT/UTF8
    Идентификатор кодека/Информация : UTF-8 Plain Text
    Язык : Ukrainian
    Default : Нет
    Forced : Нет
    Текст #4
    Идентификатор : 9
    Формат : UTF-8
    Идентификатор кодека : S_TEXT/UTF8
    Идентификатор кодека/Информация : UTF-8 Plain Text
    Язык : English
    Default : Нет
    Forced : Нет
    Текст #5
    Идентификатор : 10
    Формат : UTF-8
    Идентификатор кодека : S_TEXT/UTF8
    Идентификатор кодека/Информация : UTF-8 Plain Text
    Заголовок : SDH
    Язык : English
    Default : Нет
    Forced : Нет
    Меню
    00:00:00.000 : en:00:00:00.000
    00:05:35.126 : en:00:05:35.126
    00:09:18.558 : en:00:09:18.558
    00:11:41.159 : en:00:11:41.159
    00:16:23.232 : en:00:16:23.232
    00:20:11.669 : en:00:20:11.669
    00:24:26.715 : en:00:24:26.715
    00:26:11.904 : en:00:26:11.904
    00:30:13.311 : en:00:30:13.311
    00:31:59.126 : en:00:31:59.126
    00:34:56.886 : en:00:34:56.886
    00:39:53.433 : en:00:39:53.433
    00:42:55.573 : en:00:42:55.573
    00:45:03.826 : en:00:45:03.826
    00:47:53.412 : en:00:47:53.412
    00:49:39.560 : en:00:49:39.560
    00:52:14.423 : en:00:52:14.423
    00:54:30.517 : en:00:54:30.517
    00:57:44.211 : en:00:57:44.211
    01:00:10.398 : en:01:00:10.398
    01:03:53.830 : en:01:03:53.830
    01:06:55.511 : en:01:06:55.511
    01:09:54.774 : en:01:09:54.774
    01:13:15.891 : en:01:13:15.891
    01:18:43.594 : en:01:18:43.594
    01:21:50.906 : en:01:21:50.906
    01:25:52.189 : en:01:25:52.189
    01:28:38.813 : en:01:28:38.813
    01:32:41.431 : en:01:32:41.431
    01:35:29.724 : en:01:35:29.724
    01:41:03.432 : en:01:41:03.432
    01:43:39.880 : en:01:43:39.880
    01:49:38.989 : en:01:49:38.989
    01:54:20.562 : en:01:54:20.562
    01:57:00.430 : en:01:57:00.430
    01:59:20.403 : en:01:59:20.403
    02:01:14.434 : en:02:01:14.434
    02:05:09.627 : en:02:05:09.627
    02:06:40.551 : en:02:06:40.551
    02:11:07.860 : en:02:11:07.860

    Release was prepared by 60-fps.org

  2. Longevity:
    4 years 4 months
    Posts:
    110
    Gender:
    Male
    Мне фильм не понравился...
    30-Jun-2017 17:59 (after 1 month 2 days)
  3. Longevity:
    4 years 2 months
    Posts:
    45
    Gender:
    Male
    Посмотрел уже 4 раза. По моему скромному мнению, лучший фильм компании Марвел. Так шикарно расскрыть персонажи Хью и Патрика я даже не надеялся. Фильм не для любителей Марвела, где с первых кадров мы видим крутые спецэффекты и незаурядные шутки. Фильм мрачный, по стилистике напоминает DC Comics, как не странно. С первых кадров мы видим боль, страдания, жертвы, на которые идет каждый из 3-х мутантов, чтобы уберечь и защитить своих друзей, семью, все, что от нее осталось.
    Что интерестно: сам Хью принимал участие в написании сюжета и отказался от части гонорара, чтобы фильму припаяли рейтинг R
    Чтобы полностью погрузиться в происходящее, понять мотивацию каждого из 3-х мутантов, необходимо быть знакомым с предыдущими фильмами о Логане.
    Лично мне будет очень не хватать Росомаху, но еще больше того, кем он стал - любящим отцом и верным, заботливым другом - Логаном.
    06-Aug-2017 18:09 (after 1 month 6 days)
  4. Longevity:
    3 years 10 months
    Posts:
    1
    Gender:
    Male
    Спасибо за 720, фильм еще не смотрел но думаю будет норм.
    28-Nov-2017 01:37 (after 3 months 21 day)
  5. Longevity:
    4 years 4 months
    Posts:
    6
    Gender:
    Male
    8250Посмотрел уже 4 раза. По моему скромному мнению, лучший фильм компании Марвел. Так шикарно расскрыть персонажи Хью и Патрика я даже не надеялся. Фильм не для любителей Марвела, где с первых кадров мы видим крутые спецэффекты и незаурядные шутки. Фильм мрачный, по стилистике напоминает DC Comics, как не странно. С первых кадров мы видим боль, страдания, жертвы, на которые идет каждый из 3-х мутантов, чтобы уберечь и защитить своих друзей, семью, все, что от нее осталось.
    Что интерестно: сам Хью принимал участие в написании сюжета и отказался от части гонорара, чтобы фильму припаяли рейтинг R
    Чтобы полностью погрузиться в происходящее, понять мотивацию каждого из 3-х мутантов, необходимо быть знакомым с предыдущими фильмами о Логане.
    Лично мне будет очень не хватать Росомаху, но еще больше того, кем он стал - любящим отцом и верным, заботливым другом - Логаном.
    целиком поддерживаю....сам уже пересматриваю который раз... ИМХО.. "Логан" переплюнул всех...
    06-Jun-2018 18:57 (after 6 months 8 days)
  6. Longevity:
    2 years 7 months
    Posts:
    1
    Gender:
    Unknown
    Сообщение появится после проверки модератором
    19-Jul-2018 18:13 (after 1 month 12 days)


You cannot post new topics in this forum
You cannot reply to topics in this forum
You cannot edit your posts in this forum
You cannot delete your posts in this forum
You cannot vote in polls in this forum
You cannot attach files in this forum
You cannot download files in this forum