VIP

  1. Longevity:
    7 years
    Posts:
    2413
    Gender:
    Male
    «Его время пришло»- Информация
    Название: Логан
    Оригинальное название: Logan
    Год выхода: 2016
    Жанр: Фантастика, боевик, триллер, драма
    Режиссер: Джеймс Мэнголд
    Сценарий: Джеймс Мэнголд, Скотт Фрэнк, Майкл Грин
    Продюсер: Джозеф М. Карачиоло мл., Саймон Кинберг, Стэн Ли
    В ролях: Хью Джекман, Патрик Стюарт, Дафни Кин, Бойд Холбрук, Стивен Мерчант, Элизабет Родригес, Ричард Э. Грант, Эрик Ла Салль, Элиз Нил, Куинси Фаус
    --Сюжет:
    2029 год. Немногие выжившие мутанты объявлены вне закона и ведут тайный образ жизни в тяжких условиях подполья. Постаревший Логан работает извозчиком на лимузине в каких-то потных подмышках мексиканской глубинки, а профессор Чарльз Ксавьер так вообще живет в ржавой цистерне и смотрит "Суперняню" по вечерам. Мирный быт мутантов на пенсии внезапно нарушает маленькая девочка, за которой охотятся бритоголовые молодчики из глубоко законспирированной ячейки американских нацистов. Демонстрируя чудеса глубокого гуманизма в борьбе против гнета и кабалы эксплуататорских классов, Логан должен перевезти свалившееся на голову счастье в безопасное место, остановить генетический геноцид и проложить новый путь в истории всего прогрессивного человечества
    - Страна: США
    Продолжительность: 02:17:45

    Файл
    Кодек: MPEG4/ISO/AVC/H.264
    Формат: MKV
    Качество: BDRip 1080p | 60 fps
    Видео: 1920 x 800 (2.400) | 59.940 fps | 25.0 Мбит/сек
    Аудио 1: AC3 | 5.1 | 48 kHz | 384 kbps | 16 bit | Дубляж - iTunes |
    Аудио 2: AC3 | 5.1 | 48 kHz | 640 kbps | 16 bit | Paradox&Omskbird Records |
    Аудио 3: AC3 | 5.1 | 48 kHz | 640 kbps | 16 bit | Авторский - Михаил Чадов |
    Аудио 4: AC3 | 5.1 | 48 kHz | 640 kbps | 16 bit | English |
    Субтитры: Русские (forced, full), украинские, английские

    MedifInfo

    Видео
    Идентификатор : 1
    Формат : AVC
    Формат/Информация : Advanced Video Codec
    Профиль формата : [email protected]
    Параметр CABAC формата : Да
    Параметр ReFrames формата : 5 кадров
    Идентификатор кодека : V_MPEG4/ISO/AVC
    Продолжительность : 2 ч. 17 м.
    Битрейт : 25,0 Мбит/сек
    Ширина : 1920 пикселей
    Высота : 800 пикселей
    Соотношение сторон : 2,40:1
    Режим частоты кадров : Постоянный
    Частота кадров : 59,880 кадров/сек
    Частота кадров в оригинале : 59,940 кадров/сек
    Цветовое пространство : YUV
    Субдискретизация насыщенности : 4:2:0
    Битовая глубина : 8 бит
    Тип развёртки : Прогрессивная
    Бит/(Пиксели*Кадры) : 0.272
    Размер потока : 23,4 Гбайт (90%)
    Заголовок : www.60-fps.org
    Библиотека кодирования : x264 core 148 r2744 b97ae06
    Настройки программы : cabac=1 / ref=5 / deblock=1:-3:-3 / analyse=0x3:0x113 / me=umh / subme=8 / psy=1 / psy_rd=1.00:0.25 / mixed_ref=1 / me_range=32 / chroma_me=1 / trellis=1 / 8x8dct=1 / cqm=0 / deadzone=6,6 / fast_pskip=1 / chroma_qp_offset=-4 / threads=12 / lookahead_threads=2 / sliced_threads=0 / nr=0 / decimate=0 / interlaced=0 / bluray_compat=0 / constrained_intra=0 / bframes=3 / b_pyramid=2 / b_adapt=1 / b_bias=0 / direct=3 / weightb=1 / open_gop=0 / weightp=2 / keyint=599 / keyint_min=59 / scenecut=40 / intra_refresh=0 / rc_lookahead=50 / rc=2pass / mbtree=1 / bitrate=24999 / ratetol=1.0 / qcomp=0.80 / qpmin=0 / qpmax=69 / qpstep=4 / cplxblur=20.0 / qblur=0.5 / vbv_maxrate=62500 / vbv_bufsize=78125 / nal_hrd=none / filler=0 / ip_ratio=1.10 / aq=1:0.50
    Default : Да
    Forced : Нет
    Аудио #1
    Идентификатор : 2
    Формат : AC-3
    Формат/Информация : Audio Coding 3
    Расширение режима : CM (complete main)
    Параметр Endianness формата : Big
    Идентификатор кодека : A_AC3
    Продолжительность : 2 ч. 17 м.
    Вид битрейта : Постоянный
    Битрейт : 384 Кбит/сек
    Каналы : 6 каналов
    Расположение каналов : Front: L C R, Side: L R, LFE
    Частота : 48,0 КГц
    Битовая глубина : 16 бит
    Метод сжатия : С потерями
    Размер потока : 377 Мбайт (1%)
    Заголовок : Дубляж - iTunes
    Язык : Russian
    Default : Да
    Forced : Нет
    Аудио #2
    Идентификатор : 3
    Формат : AC-3
    Формат/Информация : Audio Coding 3
    Расширение режима : CM (complete main)
    Параметр Endianness формата : Big
    Идентификатор кодека : A_AC3
    Продолжительность : 2 ч. 17 м.
    Вид битрейта : Постоянный
    Битрейт : 640 Кбит/сек
    Каналы : 6 каналов
    Расположение каналов : Front: L C R, Side: L R, LFE
    Частота : 48,0 КГц
    Битовая глубина : 16 бит
    Метод сжатия : С потерями
    Размер потока : 629 Мбайт (2%)
    Заголовок : Paradox&Omskbird Records
    Язык : Russian
    Default : Нет
    Forced : Нет
    Аудио #3
    Идентификатор : 4
    Формат : AC-3
    Формат/Информация : Audio Coding 3
    Расширение режима : CM (complete main)
    Параметр Endianness формата : Big
    Идентификатор кодека : A_AC3
    Продолжительность : 2 ч. 17 м.
    Вид битрейта : Постоянный
    Битрейт : 640 Кбит/сек
    Каналы : 6 каналов
    Расположение каналов : Front: L C R, Side: L R, LFE
    Частота : 48,0 КГц
    Битовая глубина : 16 бит
    Метод сжатия : С потерями
    Размер потока : 629 Мбайт (2%)
    Заголовок : Авторский - Михаил Чадов
    Язык : Russian
    Default : Нет
    Forced : Нет
    Аудио #4
    Идентификатор : 5
    Формат : AC-3
    Формат/Информация : Audio Coding 3
    Расширение режима : CM (complete main)
    Параметр Endianness формата : Big
    Идентификатор кодека : A_AC3
    Продолжительность : 2 ч. 17 м.
    Вид битрейта : Постоянный
    Битрейт : 640 Кбит/сек
    Каналы : 6 каналов
    Расположение каналов : Front: L C R, Side: L R, LFE
    Частота : 48,0 КГц
    Битовая глубина : 16 бит
    Метод сжатия : С потерями
    Размер потока : 629 Мбайт (2%)
    Заголовок : eng
    Язык : English
    Default : Нет
    Forced : Нет
    Текст #1
    Идентификатор : 6
    Формат : UTF-8
    Идентификатор кодека : S_TEXT/UTF8
    Идентификатор кодека/Информация : UTF-8 Plain Text
    Заголовок : Forced
    Язык : Russian
    Default : Да
    Forced : Нет
    Текст #2
    Идентификатор : 7
    Формат : UTF-8
    Идентификатор кодека : S_TEXT/UTF8
    Идентификатор кодека/Информация : UTF-8 Plain Text
    Заголовок : Full
    Язык : Russian
    Default : Нет
    Forced : Нет
    Текст #3
    Идентификатор : 8
    Формат : UTF-8
    Идентификатор кодека : S_TEXT/UTF8
    Идентификатор кодека/Информация : UTF-8 Plain Text
    Язык : Ukrainian
    Default : Нет
    Forced : Нет
    Текст #4
    Идентификатор : 9
    Формат : UTF-8
    Идентификатор кодека : S_TEXT/UTF8
    Идентификатор кодека/Информация : UTF-8 Plain Text
    Язык : English
    Default : Нет
    Forced : Нет
    Текст #5
    Идентификатор : 10
    Формат : UTF-8
    Идентификатор кодека : S_TEXT/UTF8
    Идентификатор кодека/Информация : UTF-8 Plain Text
    Заголовок : SDH
    Язык : English
    Default : Нет
    Forced : Нет
    Меню
    00:00:00.000 : en:00:00:00.000
    00:05:35.126 : en:00:05:35.126
    00:09:18.558 : en:00:09:18.558
    00:11:41.159 : en:00:11:41.159
    00:16:23.232 : en:00:16:23.232
    00:20:11.669 : en:00:20:11.669
    00:24:26.715 : en:00:24:26.715
    00:26:11.904 : en:00:26:11.904
    00:30:13.311 : en:00:30:13.311
    00:31:59.126 : en:00:31:59.126
    00:34:56.886 : en:00:34:56.886
    00:39:53.433 : en:00:39:53.433
    00:42:55.573 : en:00:42:55.573
    00:45:03.826 : en:00:45:03.826
    00:47:53.412 : en:00:47:53.412
    00:49:39.560 : en:00:49:39.560
    00:52:14.423 : en:00:52:14.423
    00:54:30.517 : en:00:54:30.517
    00:57:44.211 : en:00:57:44.211
    01:00:10.398 : en:01:00:10.398
    01:03:53.830 : en:01:03:53.830
    01:06:55.511 : en:01:06:55.511
    01:09:54.774 : en:01:09:54.774
    01:13:15.891 : en:01:13:15.891
    01:18:43.594 : en:01:18:43.594
    01:21:50.906 : en:01:21:50.906
    01:25:52.189 : en:01:25:52.189
    01:28:38.813 : en:01:28:38.813
    01:32:41.431 : en:01:32:41.431
    01:35:29.724 : en:01:35:29.724
    01:41:03.432 : en:01:41:03.432
    01:43:39.880 : en:01:43:39.880
    01:49:38.989 : en:01:49:38.989
    01:54:20.562 : en:01:54:20.562
    01:57:00.430 : en:01:57:00.430
    01:59:20.403 : en:01:59:20.403
    02:01:14.434 : en:02:01:14.434
    02:05:09.627 : en:02:05:09.627
    02:06:40.551 : en:02:06:40.551
    02:11:07.860 : en:02:11:07.860

    Release was prepared by 60-fps.org



    Last edited by Kryl on 2017-05-27 06:51; edited 1 time in total
  2. Longevity:
    6 years 2 months
    Posts:
    149
    Gender:
    Male
    Большое Спасибо Овации Овации Овации
    25-Jun-2017 07:39 (after 29 days)
  3. Longevity:
    7 years
    Posts:
    2413
    Gender:
    Male
    8033Большое Спасибо Овации Овации Овации
    Пожалуйста .
    25-Jun-2017 07:42 (after 3 minutes)
  4. Longevity:
    4 years 11 months
    Posts:
    110
    Gender:
    Male
    А в 720р будет?
    25-Jun-2017 11:26 (after 3 hours)
  5. Longevity:
    7 years
    Posts:
    2413
    Gender:
    Male
  6. Longevity:
    4 years 11 months
    Posts:
    110
    Gender:
    Male
    Спасибо, что-то не заметил
    25-Jun-2017 15:52 (after 55 seconds)
  7. Longevity:
    4 years 2 months
    Posts:
    5
    Gender:
    Unknown
    Большое Спасибо.
    21-Aug-2017 07:53 (after 1 month 25 days)


You cannot post new topics in this forum
You cannot reply to topics in this forum
You cannot edit your posts in this forum
You cannot delete your posts in this forum
You cannot vote in polls in this forum
You cannot attach files in this forum
You cannot download files in this forum