Тор: Рагнарёк / Thor: Ragnarok (2017) BDRip 1080p | 60 fps Стражи Галактики. Часть 2 / Guardians of the Galaxy Vol. 2 (2017) BDRip 1080p | 60 fps Мстители: Эра Альтрона / Avengers: Age of Ultron (2015) BDRip 1080p | 60 fps Человек-паук: Возвращение домой / Spider-Man: Homecoming (2017) BDRip 1080p | 60 fps Валериан и город тысячи планет / Valerian and the City of a Thousand Planets (2017) BDRip 1080p | 60 fps Доктор Стрэндж / Doctor Strange (2016) BDRip 1080p | 60 fps Пираты Карибского моря: Мертвецы не рассказывают сказки / Pirates of the Caribbean: Dead Men Tell No Tales (2017) BDRip 1080p | 60 fps Аватар / Avatar (2009) BDRip 1080p | 60 fps
  1. Стаж:
    1 год 9 месяцев
    Сообщений:
    459
    Пол:
    Мужской
    Фильм «Идеальное место для запрещенных фантазий» Фильм- Информация
    Название: Лофт
    Оригинальное название: The Loft
    Год выхода: 2013
    Жанр: триллер, мелодрама, детектив
    Режиссер: Эрик Ван Лой
    Сценарий: Барт Де Пау, Уэсли Стрик
    Продюсер: Хильде Де Лаере, Мэтт ДеРосс, Пол Грин
    В ролях: Карл Урбан,Джеймс Марсден,Вентворт Миллер,Эрик Стоунстрит,Маттиас Шонартс,Изабель Лукас,Рэйчел Тейлор,Рона Митра,Валери Крус,Кали Роша
    --Сюжет:
    Пятеро женатых друзей решают совместно снять респектабельную квартиру, чтобы приводить туда любовниц и реализовывать свои сексуальные фантазии. Но однажды они находят в квартире обнаженное тело убитой женщины… Все пятеро подозревают в убийстве друг друга.-- Страна: Бельгия, США
    Продолжительность: 01:42:59

    Файл
    Кодек: MPEG4/ISO/AVC H.264/High@L4.1
    Формат: MKV
    Качество: BDRip 1080p | 60 fps
    Видео: 1920 x 800 (2.400) | 59.940 fps | 14,0 Мбит/сек
    Аудио 1: AC-3| 5.1 | 48 kHz | 448 Кбит/сек | 16 bit | Дубляж (Лицензия)
    Аудио 2: DTS-HD Master| 5.1 | 48 kHz | 3942 Кбит/сек / 1509 Кбит/сек | 24 bit | Оригинал
    Субтитры:

    MedifInfo

    Видео
    Идентификатор : 1
    Формат : AVC
    Формат/Информация : Advanced Video Codec
    Профиль формата : High@L4.1
    Параметр CABAC формата : Да
    Параметр ReFrames формата : 5 кадров
    Идентификатор кодека : V_MPEG4/ISO/AVC
    Продолжительность : 1 ч. 42 м.
    Битрейт : 14,0 Мбит/сек
    Ширина : 1920 пикселей
    Высота : 800 пикселей
    Соотношение сторон : 2,40:1
    Режим частоты кадров : Постоянный
    Частота кадров : 59,940 (60000/1001) кадров/сек
    Цветовое пространство : YUV
    Субдискретизация насыщенности : 4:2:0
    Битовая глубина : 8 бит
    Тип развёртки : Прогрессивная
    Бит/(Пиксели*Кадры) : 0.152
    Размер потока : 10,00 Гбайт (76%)
    Заголовок : Талямба: 60-fps.org
    Библиотека кодирования : x264 core 146 r2538 121396c
    Настройки программы : cabac=1 / ref=5 / deblock=1:-3:-3 / analyse=0x3:0x113 / me=umh / subme=8 / psy=1 / psy_rd=1.00:0.15 / mixed_ref=1 / me_range=32 / chroma_me=1 / trellis=1 / 8x8dct=1 / cqm=0 / deadzone=21,11 / fast_pskip=1 / chroma_qp_offset=-3 / threads=12 / lookahead_threads=2 / sliced_threads=0 / nr=0 / decimate=1 / interlaced=0 / bluray_compat=0 / constrained_intra=0 / bframes=3 / b_pyramid=2 / b_adapt=2 / b_bias=0 / direct=3 / weightb=1 / open_gop=0 / weightp=2 / keyint=599 / keyint_min=59 / scenecut=40 / intra_refresh=0 / rc_lookahead=50 / rc=2pass / mbtree=1 / bitrate=14000 / ratetol=1.0 / qcomp=0.60 / qpmin=0 / qpmax=69 / qpstep=4 / cplxblur=20.0 / qblur=0.5 / vbv_maxrate=14000 / vbv_bufsize=14000 / nal_hrd=none / filler=0 / ip_ratio=1.40 / aq=1:1.00
    Язык : English
    Default : Да
    Forced : Нет
    Аудио #1
    Идентификатор : 2
    Формат : AC-3
    Формат/Информация : Audio Coding 3
    Расширение режима : CM (complete main)
    Параметр Endianness формата : Big
    Идентификатор кодека : A_AC3
    Продолжительность : 1 ч. 42 м.
    Вид битрейта : Постоянный
    Битрейт : 448 Кбит/сек
    Каналы : 6 каналов
    Расположение каналов : Front: L C R, Side: L R, LFE
    Частота : 48,0 КГц
    Частота кадров : 31,250 кадров/сек (1536 spf)
    Битовая глубина : 16 бит
    Метод сжатия : С потерями
    Размер потока : 330 Мбайт (2%)
    Заголовок : Дублированный (Лицензия)
    Язык : Russian
    Default : Да
    Forced : Нет
    Аудио #2
    Идентификатор : 3
    Формат : DTS
    Формат/Информация : Digital Theater Systems
    Профиль формата : MA / Core
    Режим : 16
    Параметр Endianness формата : Big
    Идентификатор кодека : A_DTS
    Продолжительность : 1 ч. 42 м.
    Вид битрейта : Переменный / Постоянный
    Битрейт : 3942 Кбит/сек / 1509 Кбит/сек
    Каналы : 6 каналов
    Расположение каналов : Front: L C R, Side: L R, LFE
    Частота : 48,0 КГц
    Частота кадров : 93,750 кадра/сек (512 spf)
    Битовая глубина : 24 бит
    Метод сжатия : Без потерь / Lossy
    Размер потока : 2,84 Гбайт (22%)
    Заголовок : Оригинал
    Язык : English
    Default : Нет
    Forced : Нет
    Текст
    Идентификатор : 4
    Формат : UTF-8
    Идентификатор кодека : S_TEXT/UTF8
    Идентификатор кодека/Информация : UTF-8 Plain Text
    Продолжительность : 1 ч. 36 м.
    Битрейт : 81 бит/сек
    Count of elements : 1797
    Размер потока : 57,9 Кбайт (0%)
    Заголовок : SDH
    Язык : English
    Default : Нет
    Forced : Нет
    Меню
    00:00:00.000 : en:Chapter 01
    00:04:30.478 : en:Chapter 02
    00:10:29.086 : en:Chapter 03
    00:14:26.615 : en:Chapter 04
    00:20:08.582 : en:Chapter 05
    00:26:40.599 : en:Chapter 06
    00:32:04.547 : en:Chapter 07
    00:38:04.407 : en:Chapter 08
    00:42:38.806 : en:Chapter 09
    00:46:53.977 : en:Chapter 10
    00:50:19.599 : en:Chapter 11
    00:54:29.099 : en:Chapter 12
    01:01:50.957 : en:Chapter 13
    01:08:45.621 : en:Chapter 14
    01:13:09.093 : en:Chapter 15
    01:20:52.722 : en:Chapter 16
    01:25:55.817 : en:Chapter 17
    01:30:09.404 : en:Chapter 18
    01:35:45.781 : en:Chapter 19
    01:37:45.985 : en:Chapter 20
    01:42:59.131 : en:Chapter 21


Вы не можете начинать темы
Вы не можете отвечать на сообщения
Вы не можете редактировать свои сообщения
Вы не можете удалять свои сообщения
Вы не можете голосовать в опросах
Вы не можете прикреплять файлы к сообщениям
Вы не можете скачивать файлы