1. Longevity:
    4 years 1 month
    Posts:
    165
    Gender:
    Male
    Заказать фильмы, клипы или любое другое видео в качестве 60fps может каждый!!!
    Стоимость одного видео 50руб. !!!
    Пишите Талямба в личку, всё обсудите...
    "Лети или умри" Информация
    Название: Линия горизонта
    Оригинальное название: Horizon Line
    Год выхода: 2020
    Жанр: Триллер, драма, приключения
    Режиссер: Микаэль Марсимаин
    В ролях: Александр Дреймон, Эллисон Уильямс, Кит Дэвид, Пёрл Маки, Джумэйн Хантер, Аманда Кхан, Ламин Тамба, Орелейт Доэрти, Франсуа Грёнвальд, Марк Редмонд
    Страна: Швеция, США
    Продолжительность: 1 ч. 31 м. 58 с.
    -- Сюжет:
    Тропический остров. Свадьба друзей. Частный самолет… Все складывалось как нельзя лучше для Сары и Джексона, пока у пилота не случился сердечный приступ прямо в небе. Одни на огромной высоте, без всякой связи, а главное — без понятия, как посадить самолет. Вокруг только небо и штормовой океан. -- Файл
    Кодек: V_MPEG4/ISO/AVC
    Формат: MKV
    Качество: BDRip 1080p | 60 fps
    Видео: 1920 x 800 (2.4:1) | 59.940 fps | 30.0 Мбит/сек
    Аудио 1: 48 kHz, AC3, 5.1, 384 Kbps | iTunes |
    Аудио 2: 48 kHz, AC3, 5.1, 384 Kbps | iTunes |
    Аудио 3: 48 kHz, DTS-HD MA, 5.1, 4056 Kbps | Оригинал |

    MedifInfo

    Общее
    Уникальный идентификатор : 173957531994773213350544803488104098358 (0x82DF00828CF16AB7BA0EEC3C97AEAA36)
    Полное имя : D:\Movie\Линия горизонта(2020).BDRip.1080p.60 fps.mkv
    Формат : Matroska
    Версия формата : Version 2
    Размер файла : 22,4 Гбайт
    Продолжительность : 1 ч. 31 м.
    Общий поток : 34,8 Мбит/сек
    Название фильма : Линия горизонта https://60-fps.org/
    Дата кодирования : UTC 2021-02-18 19:32:57
    Программа кодирования : mkvmerge v5.8.0 ('No Sleep / Pillow') built on Sep 2 2012 15:37:04
    Библиотека кодирования : libebml v1.2.3 + libmatroska v1.3.0
    Attachments : Poster.jpg
    Видео
    Идентификатор : 1
    Формат : AVC
    Формат/Информация : Advanced Video Codec
    Профиль формата : [email protected]
    Параметр CABAC формата : Да
    Параметр ReFrames формата : 5 кадров
    Режим смешивания : Header stripping
    Идентификатор кодека : V_MPEG4/ISO/AVC
    Продолжительность : 1 ч. 31 м.
    Номинальный битрейт : 30,0 Мбит/сек
    Ширина : 1920 пикселей
    Высота : 800 пикселей
    Соотношение сторон : 2,40:1
    Режим частоты кадров : Постоянный
    Частота кадров : 59,940 (60000/1001) кадров/сек
    Цветовое пространство : YUV
    Субдискретизация насыщенности : 4:2:0
    Битовая глубина : 8 бит
    Тип развёртки : Прогрессивная
    Бит/(Пиксели*Кадры) : 0.326
    Библиотека кодирования : x264 core 146 r2538 121396c
    Настройки программы : cabac=1 / ref=5 / deblock=1:0:0 / analyse=0x3:0x113 / me=umh / subme=8 / psy=1 / psy_rd=1.00:0.25 / mixed_ref=1 / me_range=16 / chroma_me=1 / trellis=1 / 8x8dct=1 / cqm=0 / deadzone=6,6 / fast_pskip=1 / chroma_qp_offset=-4 / threads=12 / lookahead_threads=3 / sliced_threads=0 / nr=0 / decimate=0 / interlaced=0 / bluray_compat=0 / constrained_intra=0 / bframes=3 / b_pyramid=2 / b_adapt=2 / b_bias=0 / direct=3 / weightb=1 / open_gop=0 / weightp=2 / keyint=600 / keyint_min=60 / scenecut=40 / intra_refresh=0 / rc_lookahead=50 / rc=2pass / mbtree=1 / bitrate=30000 / ratetol=1.0 / qcomp=0.80 / qpmin=0 / qpmax=69 / qpstep=4 / cplxblur=20.0 / qblur=0.5 / vbv_maxrate=50000 / vbv_bufsize=50000 / nal_hrd=none / filler=0 / ip_ratio=1.10 / aq=1:0.50
    Язык : English
    Default : Да
    Forced : Нет
    Аудио #1
    Идентификатор : 2
    Формат : AC-3
    Формат/Информация : Audio Coding 3
    Расширение режима : CM (complete main)
    Параметр Endianness формата : Big
    Режим смешивания : Header stripping
    Идентификатор кодека : A_AC3
    Продолжительность : 1 ч. 31 м.
    Вид битрейта : Постоянный
    Битрейт : 384 Кбит/сек
    Каналы : 6 каналов
    Расположение каналов : Front: L C R, Side: L R, LFE
    Частота : 48,0 КГц
    Частота кадров : 31,250 кадров/сек (1536 spf)
    Битовая глубина : 16 бит
    Метод сжатия : С потерями
    Размер потока : 253 Мбайт (1%)
    Заголовок : iTunes
    Язык : Russian
    Default : Да
    Forced : Да
    Statistics Tags Issue : mkvmerge v52.0.0 ('Secret For The Mad') 64-bit 2021-02-17 13:21:26 / mkvmerge v5.8.0 ('No Sleep / Pillow') built on Sep 2 2012 15:37:04 2021-02-18 19:32:57
    FromStats_BitRate : 384000
    FromStats_Duration : 01:31:58.016000000
    FromStats_FrameCount : 172438
    FromStats_StreamSize : 264864768
    Аудио #2
    Идентификатор : 3
    Формат : AC-3
    Формат/Информация : Audio Coding 3
    Расширение режима : CM (complete main)
    Параметр Endianness формата : Big
    Режим смешивания : Header stripping
    Идентификатор кодека : A_AC3
    Продолжительность : 1 ч. 31 м.
    Вид битрейта : Постоянный
    Битрейт : 384 Кбит/сек
    Каналы : 6 каналов
    Расположение каналов : Front: L C R, Side: L R, LFE
    Частота : 48,0 КГц
    Частота кадров : 31,250 кадров/сек (1536 spf)
    Битовая глубина : 16 бит
    Метод сжатия : С потерями
    Размер потока : 253 Мбайт (1%)
    Заголовок : iTunes
    Язык : Ukrainian
    Default : Нет
    Forced : Нет
    Statistics Tags Issue : mkvmerge v52.0.0 ('Secret For The Mad') 64-bit 2021-02-17 13:21:26 / mkvmerge v5.8.0 ('No Sleep / Pillow') built on Sep 2 2012 15:37:04 2021-02-18 19:32:57
    FromStats_BitRate : 384000
    FromStats_Duration : 01:31:58.016000000
    FromStats_FrameCount : 172438
    FromStats_StreamSize : 264864768
    Аудио #3
    Идентификатор : 4
    Формат : DTS
    Формат/Информация : Digital Theater Systems
    Профиль формата : MA / Core
    Режим : 16
    Параметр Endianness формата : Big
    Режим смешивания : Header stripping
    Идентификатор кодека : A_DTS
    Продолжительность : 1 ч. 31 м.
    Вид битрейта : Переменный / Постоянный
    Битрейт : Неизвестно / 1509 Кбит/сек
    Каналы : 6 каналов
    Расположение каналов : Front: L C R, Side: L R, LFE
    Частота : 48,0 КГц
    Частота кадров : 93,750 кадра/сек (512 spf)
    Битовая глубина : 24 бит
    Метод сжатия : Без потерь / Lossy
    Заголовок : Original
    Язык : English
    Default : Нет
    Forced : Нет
    Statistics Tags Issue : mkvmerge v52.0.0 ('Secret For The Mad') 64-bit 2021-02-17 13:21:26 / mkvmerge v5.8.0 ('No Sleep / Pillow') built on Sep 2 2012 15:37:04 2021-02-18 19:32:57
    FromStats_BitRate : 4055766
    FromStats_Duration : 01:31:58.187000000
    FromStats_FrameCount : 517330
    FromStats_StreamSize : 2797559724
    Текст #1
    Идентификатор : 5
    Формат : UTF-8
    Идентификатор кодека : S_TEXT/UTF8
    Идентификатор кодека/Информация : UTF-8 Plain Text
    Заголовок : Full
    Язык : English
    Default : Нет
    Forced : Нет
    Statistics Tags Issue : mkvmerge v52.0.0 ('Secret For The Mad') 64-bit 2021-02-17 13:21:26 / mkvmerge v5.8.0 ('No Sleep / Pillow') built on Sep 2 2012 15:37:04 2021-02-18 19:32:57
    FromStats_BitRate : 42
    FromStats_Duration : 01:20:59.647000000
    FromStats_FrameCount : 866
    FromStats_StreamSize : 25671
    Текст #2
    Идентификатор : 6
    Формат : UTF-8
    Идентификатор кодека : S_TEXT/UTF8
    Идентификатор кодека/Информация : UTF-8 Plain Text
    Заголовок : SDH
    Язык : English
    Default : Нет
    Forced : Нет
    Statistics Tags Issue : mkvmerge v52.0.0 ('Secret For The Mad') 64-bit 2021-02-17 13:21:26 / mkvmerge v5.8.0 ('No Sleep / Pillow') built on Sep 2 2012 15:37:04 2021-02-18 19:32:57
    FromStats_BitRate : 48
    FromStats_Duration : 01:22:09.716000000
    FromStats_FrameCount : 1053
    FromStats_StreamSize : 29918
    Меню
    00:00:00.000 : en:Chapter 01
    00:05:02.719 : en:Chapter 02
    00:08:35.806 : en:Chapter 03
    00:12:02.638 : en:Chapter 04
    00:14:43.757 : en:Chapter 05
    00:17:57.117 : en:Chapter 06
    00:23:35.705 : en:Chapter 07
    00:29:23.720 : en:Chapter 08
    00:31:57.206 : en:Chapter 09
    00:38:58.919 : en:Chapter 10
    00:42:30.965 : en:Chapter 11
    00:48:51.511 : en:Chapter 12
    00:53:58.610 : en:Chapter 13
    00:58:11.237 : en:Chapter 14
    01:04:53.890 : en:Chapter 15
    01:08:17.510 : en:Chapter 16
    01:12:32.890 : en:Chapter 17
    01:15:26.730 : en:Chapter 18
    01:18:29.079 : en:Chapter 19
    01:23:45.103 : en:Chapter 20

    Release was prepared by 60-fps.org



You cannot post new topics in this forum
You cannot reply to topics in this forum
You cannot edit your posts in this forum
You cannot delete your posts in this forum
You cannot vote in polls in this forum
You cannot attach files in this forum
You cannot download files in this forum