[Цитировать]
Kryl

--Lilly Wood & The Prick and Robin Schulz - Prayer In C (2014) WEBRip 1080p | 60 fps
(Robin Schulz Remix)
--Информация о Клипе
Исполнитель: Lilly Wood & The Prick and Robin Schulz
Название: Prayer In C
Год выхода: 2014
Продолжительность: 00:03:13-Файл
Кодек: MPEG4/ISO/AVC/ H.264
Формат: MKV
Качество: WEBRip 1080p
Видео: 1920 x 816 (2.353) at 60.000 fps 4.9 Мбит/сек
Аудио: MP3 | 320 Кбит/сек | 44.1 KHz | 2 channels | 16 bits

MediaInfo

Видео
Идентификатор : 1
Формат : AVC
Формат/Информация : Advanced Video Codec
Профиль формата : Main@L4.2
Параметр CABAC формата : Да
Параметр ReFrames формата : 3 кадра
Идентификатор кодека : V_MPEG4/ISO/AVC
Продолжительность : 3 м. 13 с.
Битрейт : 4903 Кбит/сек
Ширина : 1920 пикселей
Высота : 816 пикселей
Соотношение сторон : 2,35:1
Режим частоты кадров : Постоянный
Частота кадров : 60,000 кадров/сек
Стандарт вещания : NTSC
Цветовое пространство : YUV
Субдискретизация насыщенности : 4:2:0
Битовая глубина : 8 бит
Тип развёртки : Прогрессивная
Бит/(Пиксели*Кадры) : 0.052
Размер потока : 113 Мбайт (92%)
Заголовок : www.60-fps.org
Язык : English
Default : Да
Forced : Нет
Основные цвета : BT.709
Характеристики трансфера : BT.709
Коэффициенты матрицы : BT.709
colour_range : Limited
Аудио
Идентификатор : 2
Формат : MPEG Audio
Версия формата : Version 1
Профиль формата : Layer 3
Режим : Joint stereo
Идентификатор кодека : A_MPEG/L3
Идентификатор кодека/Подсказка : MP3
Продолжительность : 3 м. 13 с.
Вид битрейта : Постоянный
Битрейт : 320 Кбит/сек
Каналы : 2 канала
Частота : 44,1 КГц
Метод сжатия : С потерями
Размер потока : 7,39 Мбайт (6%)
Заголовок : MP3
Библиотека кодирования : LAME3.99.5
Default : Да
Forced : Нет

Релиз подготовлен 60 - fps

 
Показать сообщения:    

Текущее время: 05-Дек 05:27

Часовой пояс: UTC + 3


Вы не можете начинать темы
Вы не можете отвечать на сообщения
Вы не можете редактировать свои сообщения
Вы не можете удалять свои сообщения
Вы не можете голосовать в опросах
Вы не можете прикреплять файлы к сообщениям
Вы не можете скачивать файлы