[Цитировать]
Kryl

-Ленинград - Сиськи (2016) Master 1080p | 60 fps- -Информация
Исполнитель: Ленинград
Название: Сиськи
Год выхода: 2016
Продолжительность: 00:05:37
Описание:
Сергей Шнуров и группа «Ленинград» представили клип на новую песню «Сиськи». За день видео набрало 85 тысяч просмотров.
По сюжету главная героиня обнаруживает в постели своего мужчины другую женщину, едва не убивает их ножницами и думает, что все ее беды из-за маленького размера груди.
-Файл
Кодек: MPEG4/ISO/AVC/H.264/High@L4.2
Формат: MKV
Качество: Master 1080p | 60 fps
Видео : 1920 x 792 (2.424) | 60.000 fps 25.0 Мбит/сек
Аудио : DTS | 1413 Кбит/сек | 48.0 KHz | 2.0 ch

MediaInfo

Видео
Идентификатор : 1
Формат : AVC
Формат/Информация : Advanced Video Codec
Профиль формата : High@L4.2
Параметр CABAC формата : Да
Параметр ReFrames формата : 3 кадра
Идентификатор кодека : V_MPEG4/ISO/AVC
Продолжительность : 5 м. 38 с.
Вид битрейта : Переменный
Битрейт : 24,5 Мбит/сек
Максимальный битрейт : 25,0 Мбит/сек
Ширина : 1920 пикселей
Высота : 792 пикселя
Соотношение сторон : 2,40:1
Режим частоты кадров : Постоянный
Частота кадров : 60,000 кадров/сек
Стандарт вещания : PAL
Цветовое пространство : YUV
Субдискретизация насыщенности : 4:2:0
Битовая глубина : 8 бит
Тип развёртки : Прогрессивная
Бит/(Пиксели*Кадры) : 0.268
Размер потока : 986 Мбайт (93%)
Заголовок : www.60-fps.org
Язык : English
Default : Да
Forced : Нет
Основные цвета : BT.709
Характеристики трансфера : BT.709
Коэффициенты матрицы : BT.709
colour_range : Limited
Аудио
Идентификатор : 2
Формат : DTS
Формат/Информация : Digital Theater Systems
Режим : 16
Параметр Endianness формата : Big
Идентификатор кодека : A_DTS
Продолжительность : 5 м. 38 с.
Вид битрейта : Постоянный
Битрейт : 1413 Кбит/сек
Каналы : 2 канала
Расположение каналов : Front: L R
Частота : 48,0 КГц
Битовая глубина : 16 бит
Метод сжатия : С потерями
Задержка видео : 80 мс.
Размер потока : 56,9 Мбайт (5%)
Заголовок : DTS
Язык : English
Default : Да
Forced : Нет
DURATION : 00:05:37.920000000
NUMBER_OF_FRAMES : 31680
NUMBER_OF_BYTES : 59685120
_STATISTICS_WRITING_APP : mkvmerge v7.6.0 ('Garden of Dreams') 32bit built on Feb 8 2015 12:51:39
_STATISTICS_WRITING_DATE_UTC : 2016-09-06 18:52:52
_STATISTICS_TAGS : BPS DURATION NUMBER_OF_FRAMES NUMBER_OF_BYTES

Релиз подготовлен 60 - fps

 
Показать сообщения:    

Текущее время: 08-Дек 09:03

Часовой пояс: UTC + 3


Вы не можете начинать темы
Вы не можете отвечать на сообщения
Вы не можете редактировать свои сообщения
Вы не можете удалять свои сообщения
Вы не можете голосовать в опросах
Вы не можете прикреплять файлы к сообщениям
Вы не можете скачивать файлы