Rammstein (БЕЗ ЦЕНЗУРЫ)| WEBRip 1080p | 60 fps Britney Spears - ...Baby One More Time (2009) Full HD 1080p | 60 fps Jennifer Lopez ft. Iggy Azalea - Booty (2014) Full HD 1080p | 60 fps Nicki Minaj - Anaconda (2014) BDRip 1080p | 60 fps Britney Spears - Oops! I Did It Again Uncut (2009) HD 1080p | 60 fps The Prodigy - Live World's On Fire (2011) Blu-Ray 1080p | 72 fps Philizz - Video Yearmix (2019) Full HD 1080p | 60 fps Dan Balan - Chica Bomb (2010) WEBRip 1080p | 60 fps
  1. Longevity:
    6 years 4 months
    Posts:
    2414
    Gender:
    Male
    -Ленинград - Кольщик (2017) Full HD 1080p | 60 fps --Информация о Клипе
    Исполнитель: Ленинград
    Название: Кольщик
    Год выхода: 2017
    Продолжительность: 00:04:18-Описание:
    «Кольщик» — песня группы «Ленинград». Исполняется коллективом с марта 2016 года, вышла синглом 14 февраля 2017 года; одновременно на YouTube был опубликован клип к песне, снятый Ильёй Найшуллером и к 16 февраля собравший более 3 миллионов просмотров. Клип стал лауреатом премии Berlin Music Video Awards в номинациях "Лучшее музыкальное видео года" и "Лучший концепт"; также видеоработа стала победителем лондонского фестиваля дизайна и рекламы D&AD.
    Клип снят с использованием обратной съёмки — все события показаны в обратном порядке. Прямые отсылки к географическому расположению отсутствуют; съёмка проходила в Тверском государственном цирке, а для видов снаружи использовано изображение Кишинёвского государственного цирка. Первые кадры демонстрируют выбегающих в панике из горящего здания людей, далее показана цепочка событий, которые привели к этому: попадание мыльного пузыря в глаз воздушной гимнастке, секс в комнате осветителя в непосредственной близости от важной аппаратуры, драка в VIP-ложе, разрушение стены цирка въехавшей в неё полицейской машиной, нападение вырвавшегося на свободу тигра на зрителей и так далее.
    Отвечая на вопрос журналиста издания «Коммерсантъ» о связи между песней и клипом, Илья Найшуллер отметил, что для него она есть. «Среди героинь клипа есть девушка, от лица которой могла бы быть рассказана эта история. Но я не скажу, кто это», — отметил режиссёр. Аналогично высказался по данному поводу и продюсер клипа Дмитрий Муравьёв. «У нашего клипа эта связь, конечно, есть, чуть по-другому поданная», — заявил он в интервью порталу TJournal.-Файл
    Кодек: V_MPEG4/ISO/AVC
    Контейнер: MKV
    Формат: AVC
    Качество: Full HD 1080p | 60 fps
    Видео: 1920 x 1080 (1.778) | 60.000 fps | 30.0 Мбит/сек
    Аудио: AC3 | 640 Кбит/сек | 2.0 канала | 48.0 КГц | 16 бит

    MediaInfo

    Видео
    Идентификатор : 1
    Формат : AVC
    Формат/Информация : Advanced Video Codec
    Профиль формата : [email protected]
    Параметр CABAC формата : Да
    Параметр ReFrames формата : 4 кадра
    Идентификатор кодека : V_MPEG4/ISO/AVC
    Продолжительность : 4 м. 18 с.
    Битрейт : 30,0 Мбит/сек
    Ширина : 1920 пикселей
    Высота : 1080 пикселей
    Соотношение сторон : 16:9
    Режим частоты кадров : Постоянный
    Частота кадров : 60,000 кадров/сек
    Цветовое пространство : YUV
    Субдискретизация насыщенности : 4:2:0
    Битовая глубина : 8 бит
    Тип развёртки : Прогрессивная
    Бит/(Пиксели*Кадры) : 0.241
    Размер потока : 902 Мбайт (96%)
    Заголовок : www.60-fps.org
    Библиотека кодирования : x264 core 148 r2744 b97ae06
    Настройки программы : cabac=1 / ref=4 / deblock=1:-3:-3 / analyse=0x3:0x113 / me=umh / subme=8 / psy=1 / psy_rd=1.00:0.25 / mixed_ref=1 / me_range=32 / chroma_me=1 / trellis=1 / 8x8dct=1 / cqm=0 / deadzone=6,6 / fast_pskip=1 / chroma_qp_offset=-4 / threads=12 / lookahead_threads=2 / sliced_threads=0 / nr=0 / decimate=0 / interlaced=0 / bluray_compat=0 / constrained_intra=0 / bframes=3 / b_pyramid=2 / b_adapt=1 / b_bias=0 / direct=3 / weightb=1 / open_gop=0 / weightp=2 / keyint=600 / keyint_min=60 / scenecut=40 / intra_refresh=0 / rc_lookahead=50 / rc=2pass / mbtree=1 / bitrate=29999 / ratetol=1.0 / qcomp=0.80 / qpmin=0 / qpmax=69 / qpstep=4 / cplxblur=20.0 / qblur=0.5 / vbv_maxrate=62500 / vbv_bufsize=78125 / nal_hrd=none / filler=0 / ip_ratio=1.10 / aq=1:0.50
    Default : Да
    Forced : Нет
    Аудио
    Идентификатор : 2
    Формат : AC-3
    Формат/Информация : Audio Coding 3
    Расширение режима : CM (complete main)
    Параметр Endianness формата : Big
    Идентификатор кодека : A_AC3
    Продолжительность : 4 м. 18 с.
    Вид битрейта : Постоянный
    Битрейт : 640 Кбит/сек
    Каналы : 2 канала
    Расположение каналов : Front: L R
    Частота : 48,0 КГц
    Битовая глубина : 16 бит
    Метод сжатия : С потерями
    Размер потока : 19,7 Мбайт (2%)
    Язык : English
    Default : Да
    Forced : Нет

    Release was prepared by 60-fps.org

  2. Longevity:
    4 years 2 months
    Posts:
    2
    Gender:
    Male
    Hi,
    How are you? How can I maintain my ratio? I want to download torrent?
    26-Oct-2017 08:40 (after 6 days)
  3. Longevity:
    4 years 6 months
    Posts:
    1575
    Gender:
    Male
    8818Hi,
    How are you? How can I maintain my ratio? I want to download torrent?
    https://60-fps.org/topic-razdacha_torrent_faylov_dlya_povyisheniya_reytinga-t=2842.html
    https://60-fps.org/topic-obmen_bonusov_dlya_povyisheniya_reytinga-t=2843.html
    Read these guides, translate them into your own language and you will understand everything ...!
    26-Oct-2017 11:24 (after 2 hours 44 minutes)


You cannot post new topics in this forum
You cannot reply to topics in this forum
You cannot edit your posts in this forum
You cannot delete your posts in this forum
You cannot vote in polls in this forum
You cannot attach files in this forum
You cannot download files in this forum