Агент Ева / Ava (2020) BDRip 1080p | 60 fps Властелин колец: Трилогия / The Lord of the Rings: Trilogy (2001-2003) BDRip-AVC | Extended Cut | 60 fps Пятый элемент / The Fifth Element (1997) BDRip 1080p | 60 fps Форпост / The Outpost (2020) BDRip 1080p | 60 fps Охота / The Hunt (2020) BDRip 1080p | 60 fps Поезд смерти / D-Railed (2018) BDRip 1080p | 60 fps Вивариум / Vivarium (2019) BDRip 720p | 60 fps Ультрафиолет / Ultraviolet (2006) BDRip 1080p | 60 fps
  1. Longevity:
    6 years 4 months
    Posts:
    2414
    Gender:
    Male
    Лекарство от здоровья / A Cure for Wellness (2016) BDRip 720p | 60 fps- Информация
    Название: Лекарство от здоровья
    Оригинальное название: A Cure for Wellness
    Год выхода: 2016
    Жанр: Триллер, детектив
    Режиссер: Гор Вербински
    Сценарий: Джастин Хэйс, Гор Вербински
    Продюсер: Дэвид Крокетт, Арнон Милчен, Морган Де Грозейер
    В ролях: Дэйн ДеХаан, Джейсон Айзекс, Миа Гот, Иво Нанди, Адриан Шиллер, Селия Имри, Гарри Гронер, Томас Норстрем, Ашок Манданна, Магнус Креппер
    --Сюжет:
    Молодой, но перспективный брокер из динамично развивающейся компании приезжает в закрытый санаторий в Альпах, чтобы срочно забрать и вернуть в лоно родного офиса своего босса. Но тот категорически не хочет никуда уезжать, так как давно и плотно подсел на местную лечебную воду с витаминами и биодобавками. Тем более, в результате несчастного случая молодой человек и сам становится вынужденным пациентом водной здравницы. После приема внутрь нескольких стаканов с чудодейственной амброзией бедняге начинает казаться, будто бы у него вытекли глаза и выпали передние зубы, а под кожей завелись черви. Терзаемый смутными сомнениями, он начинает собственное расследование
    - Страна: Германия, США
    Продолжительность: 02:26:33

    Файл
    Кодек: MPEG4/ISO/AVC/H.264
    Формат: MKV
    Качество: BDRip 720p | 60 fps
    Видео: 1280 x 720 (1.778) | 59.940 fps | 10.0 Мбит/сек
    Аудио 1: AC3 | 5.1 | 48 kHz | 640 kbps | 16 bit | Дубляж |
    Аудио 2: AC3 | 5.1 | 48 kHz | 640 kbps | 16 bit | English |
    Субтитры: Русские (forced, full), английские

    MedifInfo

    Видео
    Идентификатор : 1
    Формат : AVC
    Формат/Информация : Advanced Video Codec
    Профиль формата : [email protected]
    Параметр CABAC формата : Да
    Параметр ReFrames формата : 5 кадров
    Идентификатор кодека : V_MPEG4/ISO/AVC
    Продолжительность : 2 ч. 26 м.
    Битрейт : 9999 Кбит/сек
    Ширина : 1280 пикселей
    Высота : 720 пикселей
    Соотношение сторон : 16:9
    Режим частоты кадров : Постоянный
    Частота кадров : 59,880 кадров/сек
    Частота кадров в оригинале : 59,940 кадров/сек
    Цветовое пространство : YUV
    Субдискретизация насыщенности : 4:2:0
    Битовая глубина : 8 бит
    Тип развёртки : Прогрессивная
    Бит/(Пиксели*Кадры) : 0.181
    Размер потока : 10,0 Гбайт (87%)
    Заголовок : www.60-fps.org
    Библиотека кодирования : x264 core 148 r2744 b97ae06
    Настройки программы : cabac=1 / ref=5 / deblock=1:-3:-3 / analyse=0x3:0x113 / me=umh / subme=8 / psy=1 / psy_rd=1.00:0.25 / mixed_ref=1 / me_range=32 / chroma_me=1 / trellis=1 / 8x8dct=1 / cqm=0 / deadzone=6,6 / fast_pskip=1 / chroma_qp_offset=-4 / threads=12 / lookahead_threads=2 / sliced_threads=0 / nr=0 / decimate=0 / interlaced=0 / bluray_compat=0 / constrained_intra=0 / bframes=3 / b_pyramid=2 / b_adapt=1 / b_bias=0 / direct=3 / weightb=1 / open_gop=0 / weightp=2 / keyint=599 / keyint_min=59 / scenecut=40 / intra_refresh=0 / rc_lookahead=50 / rc=2pass / mbtree=1 / bitrate=9999 / ratetol=1.0 / qcomp=0.80 / qpmin=0 / qpmax=69 / qpstep=4 / cplxblur=20.0 / qblur=0.5 / vbv_maxrate=62500 / vbv_bufsize=78125 / nal_hrd=none / filler=0 / ip_ratio=1.10 / aq=1:0.50
    Default : Да
    Forced : Нет
    Аудио #1
    Идентификатор : 2
    Формат : AC-3
    Формат/Информация : Audio Coding 3
    Расширение режима : CM (complete main)
    Параметр Endianness формата : Big
    Идентификатор кодека : A_AC3
    Продолжительность : 2 ч. 26 м.
    Вид битрейта : Постоянный
    Битрейт : 640 Кбит/сек
    Каналы : 6 каналов
    Расположение каналов : Front: L C R, Side: L R, LFE
    Частота : 48,0 КГц
    Битовая глубина : 16 бит
    Метод сжатия : С потерями
    Размер потока : 671 Мбайт (6%)
    Заголовок : Дубляж
    Язык : Russian
    Default : Да
    Forced : Нет
    Аудио #2
    Идентификатор : 3
    Формат : AC-3
    Формат/Информация : Audio Coding 3
    Расширение режима : CM (complete main)
    Параметр Endianness формата : Big
    Идентификатор кодека : A_AC3
    Продолжительность : 2 ч. 26 м.
    Вид битрейта : Постоянный
    Битрейт : 640 Кбит/сек
    Каналы : 6 каналов
    Расположение каналов : Front: L C R, Side: L R, LFE
    Частота : 48,0 КГц
    Битовая глубина : 16 бит
    Метод сжатия : С потерями
    Размер потока : 671 Мбайт (6%)
    Заголовок : Eng
    Язык : English
    Default : Нет
    Forced : Нет
    Текст #1
    Идентификатор : 4
    Формат : UTF-8
    Идентификатор кодека : S_TEXT/UTF8
    Идентификатор кодека/Информация : UTF-8 Plain Text
    Заголовок : Forced
    Язык : Russian
    Default : Да
    Forced : Нет
    Текст #2
    Идентификатор : 5
    Формат : UTF-8
    Идентификатор кодека : S_TEXT/UTF8
    Идентификатор кодека/Информация : UTF-8 Plain Text
    Заголовок : Full
    Язык : Russian
    Default : Нет
    Forced : Нет
    Текст #3
    Идентификатор : 6
    Формат : UTF-8
    Идентификатор кодека : S_TEXT/UTF8
    Идентификатор кодека/Информация : UTF-8 Plain Text
    Заголовок : Full
    Язык : English
    Default : Нет
    Forced : Нет
    Текст #4
    Идентификатор : 7
    Формат : UTF-8
    Идентификатор кодека : S_TEXT/UTF8
    Идентификатор кодека/Информация : UTF-8 Plain Text
    Заголовок : SDH
    Язык : English
    Default : Нет
    Forced : Нет
    Меню
    00:00:00.000 : en: Chapter 1
    00:03:37.092 : en: Chapter 2
    00:09:18.349 : en: Chapter 3
    00:13:22.343 : en: Chapter 4
    00:16:55.681 : en: Chapter 5
    00:22:49.910 : en: Chapter 6
    00:27:42.035 : en: Chapter 7
    00:32:01.878 : en: Chapter 8
    00:38:23.843 : en: Chapter 9
    00:44:51.397 : en: Chapter 10
    00:51:22.162 : en: Chapter 11
    00:56:50.782 : en: Chapter 12
    01:01:31.062 : en: Chapter 13
    01:08:08.293 : en: Chapter 14
    01:13:12.221 : en: Chapter 15
    01:17:02.284 : en: Chapter 16
    01:21:08.447 : en: Chapter 17
    01:25:17.195 : en: Chapter 18
    01:29:20.355 : en: Chapter 19
    01:34:59.277 : en: Chapter 20
    01:40:19.513 : en: Chapter 21
    01:43:49.181 : en: Chapter 22
    01:47:46.794 : en: Chapter 23
    01:52:30.661 : en: Chapter 24
    01:56:30.775 : en: Chapter 25
    02:04:22.121 : en: Chapter 26
    02:09:17.458 : en: Chapter 27
    02:19:59.057 : en: Chapter 28

    Release was prepared by 60-fps.org



    Last edited by Kryl on 2017-06-09 07:01; edited 1 time in total
  2. Longevity:
    6 years 3 months
    Posts:
    50
    Gender:
    Male
    Спасибо за фильм. За умное кино от Гора Вербински. Музыка Benjamin Wallfisch великолепна.
    09-Jun-2017 17:37 (after 20 hours)
  3. Longevity:
    4 years 4 months
    Posts:
    16
    Gender:
    Male
    Шикарный фильм и качество!!! Огромное спасибо!!! Да Улыбаюсь
    11-Jun-2017 21:53 (after 2 days 4 hours)


You cannot post new topics in this forum
You cannot reply to topics in this forum
You cannot edit your posts in this forum
You cannot delete your posts in this forum
You cannot vote in polls in this forum
You cannot attach files in this forum
You cannot download files in this forum