Тайна Коко / Coco (2017) BDRip 1080p | 60 fps Тачки 3 / Cars 3 (2017) BDRip 720p | 60 fps Фердинанд / Ferdinand (2017) BDRip 720p | 60 fps Кингсглейв: Последняя фантазия XV / Kingsglaive: Final Fantasy XV (2016) BDRip 1080p | 60 fps Зверополис / Zootopia (2016) BDRip 1080p | 60 fps Тачки 3 / Cars 3 (2017) BDRip 1080p | 60 fps Моана / Moana (2016) BDRip 720p | 60 fps Моана / Moana (2016) BDRip 720p | 60 fps
  1. Стаж:
    3 года 10 месяцев
    Сообщений:
    2396
    Пол:
    Мужской
    «Всегда будь собой. Если только ты не Бэтмен»- Информация
    Название: Лего Фильм: Бэтмен
    Оригинальное название: The LEGO Batman Movie
    Год выхода: 2017
    Жанр: Мультфильм, фэнтези, боевик, комедия, приключения, семейный, полнометражный
    Режиссер: Крис МакКей
    Сценарий: Сет Грэм-Смит, Крис МакКенна, Эрик Соммерс
    Продюсер: Уилл Аллегра, Мэттью Эштон, Джон Бертон
    Персонажей озвучивали: Уилл Арнетт, Майкл Сера, Розарио Доусон, Рэйф Файнс, Зак Галифианакис, Дженни Слейт, Джейсон Манцукас, Конан О’Брайен, Даг Бенсон
    --Сюжет:
    Готэму вновь грозит опасность. И на его стражу становится единственный герой, которого заслуживает этот город — Бэтмен, альтер-эго миллиардера Брюса Уэйна, живущего в своем огромном родовом поместье вместе с дворецким Альфредом. Но в этот раз супергерой вынужден взять в напарники парня по имени Дик Грейсон, которого он, сам того не помня, усыновил на одном из светских приемов. Новоиспеченный Робин составит Бэтмену компанию в борьбе с его заклятым врагом Джокером, сбежавшим из психиатрической больницы «Аркхем», а также Харли Куинн, готовой на самые сумасшедшие злодеяния, чтобы оставить в дураках всю «Лигу Справедливости», включая Бэтгерл.
    - Страна: США, Дания
    Продолжительность: 01:44:30

    Файл
    Кодек: MPEG4/ISO/AVC/H.264
    Формат: MKV
    Качество: BDRip 1080p | 60 fps
    Видео: 1920 x 800 (2.400) | 60.000 fps | 24.0 Мбит/сек
    Аудио 1: AC3 | 5.1 | 48 kHz | 384 kbps | 16 bit | Дубляж - iTunes |
    Аудио 2: AC3 | 5.1 | 48 kHz | 448 kbps | 16 bit | Eng |
    Субтитры: Русские (forced), Русские (full), английские (full), английские (SDH)

    MedifInfo

    Видео
    Идентификатор : 1
    Формат : AVC
    Формат/Информация : Advanced Video Codec
    Профиль формата : High@L4.1
    Параметр CABAC формата : Да
    Параметр ReFrames формата : 5 кадров
    Идентификатор кодека : V_MPEG4/ISO/AVC
    Продолжительность : 1 ч. 44 м.
    Битрейт : 24,0 Мбит/сек
    Ширина : 1920 пикселей
    Высота : 800 пикселей
    Соотношение сторон : 2,40:1
    Режим частоты кадров : Постоянный
    Частота кадров : 59,880 кадров/сек
    Частота кадров в оригинале : 59,940 кадров/сек
    Цветовое пространство : YUV
    Субдискретизация насыщенности : 4:2:0
    Битовая глубина : 8 бит
    Тип развёртки : Прогрессивная
    Бит/(Пиксели*Кадры) : 0.261
    Размер потока : 17,2 Гбайт (95%)
    Заголовок : www.60-fps.org
    Библиотека кодирования : x264 core 148 r2744 b97ae06
    Настройки программы : cabac=1 / ref=5 / deblock=1:-3:-3 / analyse=0x3:0x113 / me=umh / subme=8 / psy=1 / psy_rd=1.00:0.25 / mixed_ref=1 / me_range=32 / chroma_me=1 / trellis=1 / 8x8dct=1 / cqm=0 / deadzone=6,6 / fast_pskip=1 / chroma_qp_offset=-4 / threads=12 / lookahead_threads=2 / sliced_threads=0 / nr=0 / decimate=0 / interlaced=0 / bluray_compat=0 / constrained_intra=0 / bframes=3 / b_pyramid=2 / b_adapt=1 / b_bias=0 / direct=3 / weightb=1 / open_gop=0 / weightp=2 / keyint=599 / keyint_min=59 / scenecut=40 / intra_refresh=0 / rc_lookahead=50 / rc=2pass / mbtree=1 / bitrate=23999 / ratetol=1.0 / qcomp=0.80 / qpmin=0 / qpmax=69 / qpstep=4 / cplxblur=20.0 / qblur=0.5 / vbv_maxrate=62500 / vbv_bufsize=78125 / nal_hrd=none / filler=0 / ip_ratio=1.10 / aq=1:0.50
    Default : Да
    Forced : Нет
    Аудио #1
    Идентификатор : 2
    Формат : AC-3
    Формат/Информация : Audio Coding 3
    Расширение режима : CM (complete main)
    Параметр Endianness формата : Big
    Идентификатор кодека : A_AC3
    Продолжительность : 1 ч. 44 м.
    Вид битрейта : Постоянный
    Битрейт : 384 Кбит/сек
    Каналы : 6 каналов
    Расположение каналов : Front: L C R, Side: L R, LFE
    Частота : 48,0 КГц
    Битовая глубина : 16 бит
    Метод сжатия : С потерями
    Размер потока : 287 Мбайт (2%)
    Заголовок : Дубляж - iTunes
    Язык : Russian
    Default : Да
    Forced : Нет
    Аудио #2
    Идентификатор : 3
    Формат : AC-3
    Формат/Информация : Audio Coding 3
    Расширение режима : CM (complete main)
    Параметр Endianness формата : Big
    Идентификатор кодека : A_AC3
    Продолжительность : 1 ч. 44 м.
    Вид битрейта : Постоянный
    Битрейт : 448 Кбит/сек
    Каналы : 6 каналов
    Расположение каналов : Front: L C R, Side: L R, LFE
    Частота : 48,0 КГц
    Битовая глубина : 16 бит
    Метод сжатия : С потерями
    Размер потока : 335 Мбайт (2%)
    Заголовок : eng
    Язык : English
    Default : Нет
    Forced : Нет
    Текст #1
    Идентификатор : 4
    Формат : UTF-8
    Идентификатор кодека : S_TEXT/UTF8
    Идентификатор кодека/Информация : UTF-8 Plain Text
    Заголовок : forced
    Язык : Russian
    Default : Да
    Forced : Нет
    Текст #2
    Идентификатор : 5
    Формат : UTF-8
    Идентификатор кодека : S_TEXT/UTF8
    Идентификатор кодека/Информация : UTF-8 Plain Text
    Заголовок : full
    Язык : Russian
    Default : Нет
    Forced : Нет
    Текст #3
    Идентификатор : 6
    Формат : UTF-8
    Идентификатор кодека : S_TEXT/UTF8
    Идентификатор кодека/Информация : UTF-8 Plain Text
    Заголовок : full
    Язык : English
    Default : Нет
    Forced : Нет
    Текст #4
    Идентификатор : 7
    Формат : UTF-8
    Идентификатор кодека : S_TEXT/UTF8
    Идентификатор кодека/Информация : UTF-8 Plain Text
    Заголовок : SDH
    Язык : English
    Default : Нет
    Forced : Нет
    Меню
    00:00:00.000 : en:00:00:00.000
    00:12:56.526 : en:00:12:56.526
    00:22:57.793 : en:00:22:57.793
    00:32:32.701 : en:00:32:32.701
    00:40:58.539 : en:00:40:58.539
    00:50:12.593 : en:00:50:12.593
    01:00:26.456 : en:01:00:26.456
    01:10:59.505 : en:01:10:59.505
    01:19:30.975 : en:01:19:30.975
    01:27:18.400 : en:01:27:18.400
    01:36:27.156 : en:01:36:27.156

    Релиз подготовлен 60 - fps

  2. Стаж:
    1 год 11 месяцев
    Сообщений:
    523
    Пол:
    Мужской
    Бандит скорости... ! Молюсь один процент остался... Ожидание
    04-Июн-2017 19:10 (спустя 3 дня)
  3. Стаж:
    1 год 9 месяцев
    Сообщений:
    16
    Пол:
    Мужской
    Ребятки Привет Раздайте пожалуйста Улыбаюсь )))
    24-Июн-2017 20:13 (спустя 20 дней)
  4. Стаж:
    1 год 9 месяцев
    Сообщений:
    16
    Пол:
    Мужской
    Мужики это уже не серьёзно! осталось 8% уже третий день!!! Будьте добры раздайте! Грущу
    28-Июн-2017 18:50 (спустя 3 дня)
  5. Стаж:
    3 года 10 месяцев
    Сообщений:
    2396
    Пол:
    Мужской
    8056Мужики это уже не серьёзно! осталось 8% уже третий день!!! Будьте добры раздайте! Грущу
    Вы просите раздать , я на раздачу становлюсь , но ни кто не качает ((
    28-Июн-2017 20:28 (спустя 1 час 37 минут)
  6. Стаж:
    2 года 10 месяцев
    Сообщений:
    9
    Пол:
    Мужской
    Я качаю-раздаю =)
    29-Июн-2017 08:28 (спустя 11 часов)
  7. Стаж:
    1 год 3 месяца
    Сообщений:
    4
    Пол:
    Не указан
    постою на раздаче
    02-Сен-2017 14:14 (спустя 2 месяца 3 дня)
  8. Стаж:
    3 месяца 10 дней
    Сообщений:
    1
    Пол:
    Не указан
    о супер!
    06-Май-2018 19:48 (спустя 8 месяцев 4 дня)


Вы не можете начинать темы
Вы не можете отвечать на сообщения
Вы не можете редактировать свои сообщения
Вы не можете удалять свои сообщения
Вы не можете голосовать в опросах
Вы не можете прикреплять файлы к сообщениям
Вы не можете скачивать файлы