[Цитировать]
Kryl

«A fugitive from a killer. A remote outpost. A fight to the death»- Информация о фильме
Название: Легионер
Оригинальное название: Legionnaire
Год выхода: 1998
Жанр: Боевик, драма, приключения, военный
Режиссер: Питер МакДональд
Сценарий: Шелдон Леттич, Ребекка Моррисон, Жан-Клод Ван Дамм
Продюсер: Питер МакДональд, Эдвард Р. Прессман, Жан-Клод Ван Дамм
В ролях: Жан-Клод Ван Дамм (Alain Lefevre), Адевале Акинойе-Агбаже, Стивен Беркофф, Николас Фэррел, Джим Картер, Ана Софренович, Даниэль Кальтаджироне, Джозеф Лонг, Марио Калли, Джо Монтана, Ким Ромер, Андерс Питер Бро
--О фильме:
Профессиональный боксер Ален Лефевр по указанию босса местной мафии должен проиграть свой очередной бой. Но у Лефевра были другие планы…- - Страна: США
Продолжительность: 01:38:29
-- Файл
Кодек: MPEG4/ISO/AVC H.264
Формат: MKV
Качество: BDRip-AVC 60fps
Видео: 1024x440 (2.35:1) | 59.940 fps | ~4.0 Мбит/сек
Аудио 1: AC3 | 5.1 | 48 kHz | 448 kbps | 16 bit | Двухголосый, закадровый Videogram |
Аудио 2: AC3 | 2.0 | 48 kHz | 192 kbps | 16 bit | Многоголосый, закадровый ТВЦ |
Аудио 3: AC3 | 2.0 | 48 kHz | 192 kbps | 16 bit | Многоголосый, закадровый ОРТ |
Субтитры: Русские (Полные), английские (Полные)

MedifInfo

Video
ID : 1
Format : AVC
Format/Info : Advanced Video Codec
Format profile : High@L4.1
Format settings, CABAC : Yes
Format settings, ReFrames : 4 frames
Codec ID : V_MPEG4/ISO/AVC
Duration : 1h 38mn
Bit rate : 4 050 Kbps
Width : 1 024 pixels
Height : 440 pixels
Display aspect ratio : 2.35:1
Frame rate : 60.000 fps
Color space : YUV
Chroma subsampling : 4:2:0
Bit depth : 8 bits
Scan type : Progressive
Bits/(Pixel*Frame) : 0.150
Stream size : 2.72 GiB (81%)
Writing library : x264 core 146 r2538 121396c
Encoding settings : cabac=1 / ref=3 / deblock=1:0:0 / analyse=0x3:0x113 / me=umh / subme=9 / psy=1 / psy_rd=1.00:0.10 / mixed_ref=1 / me_range=32 / chroma_me=1 / trellis=2 / 8x8dct=1 / cqm=0 / deadzone=21,11 / fast_pskip=0 / chroma_qp_offset=-3 / threads=12 / lookahead_threads=3 / sliced_threads=0 / nr=0 / decimate=1 / interlaced=0 / bluray_compat=0 / constrained_intra=0 / bframes=16 / b_pyramid=2 / b_adapt=2 / b_bias=0 / direct=3 / weightb=1 / open_gop=0 / weightp=2 / keyint=600 / keyint_min=60 / scenecut=40 / intra_refresh=0 / rc_lookahead=40 / rc=2pass / mbtree=0 / bitrate=4050 / ratetol=1.0 / qcomp=0.60 / qpmin=0 / qpmax=69 / qpstep=4 / cplxblur=20.0 / qblur=0.5 / vbv_maxrate=50000 / vbv_bufsize=62500 / nal_hrd=none / filler=0 / ip_ratio=1.40 / pb_ratio=1.30 / aq=1:1.00
Language : English
Default : Yes
Forced : No
Audio #1
ID : 2
Format : AC-3
Format/Info : Audio Coding 3
Mode extension : CM (complete main)
Codec ID : A_AC3
Duration : 1h 38mn
Bit rate mode : Constant
Bit rate : 448 Kbps
Channel(s) : 6 channels
Channel positions : Front: L C R, Side: L R, LFE
Sampling rate : 48.0 KHz
Bit depth : 16 bits
Compression mode : Lossy
Stream size : 316 MiB (9%)
Title : Двуголосый, закадровый Videogram
Language : Russian
Default : Yes
Forced : No
Audio #2
ID : 3
Format : AC-3
Format/Info : Audio Coding 3
Mode extension : CM (complete main)
Codec ID : A_AC3
Duration : 1h 38mn
Bit rate mode : Constant
Bit rate : 192 Kbps
Channel(s) : 2 channels
Channel positions : Front: L R
Sampling rate : 48.0 KHz
Bit depth : 16 bits
Compression mode : Lossy
Stream size : 135 MiB (4%)
Title : Многоголосый, закадровыйТВЦ
Language : Russian
Default : No
Forced : No
Audio #3
ID : 4
Format : AC-3
Format/Info : Audio Coding 3
Mode extension : CM (complete main)
Codec ID : A_AC3
Duration : 1h 38mn
Bit rate mode : Constant
Bit rate : 192 Kbps
Channel(s) : 2 channels
Channel positions : Front: L R
Sampling rate : 48.0 KHz
Bit depth : 16 bits
Compression mode : Lossy
Stream size : 135 MiB (4%)
Title : Многоголосый, закадровый ОРТ
Language : Russian
Default : No
Forced : No
Text #1
ID : 5
Format : UTF-8
Codec ID : S_TEXT/UTF8
Codec ID/Info : UTF-8 Plain Text
Title : Полные
Language : Russian
Default : No
Forced : No
Text #2
ID : 6
Format : UTF-8
Codec ID : S_TEXT/UTF8
Codec ID/Info : UTF-8 Plain Text
Title : Полные
Language : English
Default : No
Forced : No
Menu
00:00:00.000 : en:Chapter 1
00:10:00.208 : en:Chapter 2
00:17:06.750 : en:Chapter 3
00:21:28.625 : en:Chapter 4
00:28:17.750 : en:Chapter 5
00:35:39.166 : en:Chapter 6
00:40:30.541 : en:Chapter 7
00:47:03.625 : en:Chapter 8
00:52:58.250 : en:Chapter 9
01:00:46.083 : en:Chapter 10
01:06:32.083 : en:Chapter 11
01:11:53.500 : en:Chapter 12
01:16:29.750 : en:Chapter 13
01:22:58.375 : en:Chapter 14
01:28:18.416 : en:Chapter 15
01:34:24.125 : en:Chapter 16
 
Показать сообщения:    

Текущее время: 08-Дек 19:10

Часовой пояс: UTC + 3


Вы не можете начинать темы
Вы не можете отвечать на сообщения
Вы не можете редактировать свои сообщения
Вы не можете удалять свои сообщения
Вы не можете голосовать в опросах
Вы не можете прикреплять файлы к сообщениям
Вы не можете скачивать файлы