[Цитировать]
mimok

Легион / Legion (2010) BDRip 720p | 60fps«И идет он со тьмами ангелов своих сотворить суд над всеми. И имя им...»- Информация о фильме
Название: Легион
Оригинальное название: Legion
Год выхода: 2010
Жанр: Ужасы, фэнтези, боевик
Режиссер: Скотт Чарльз Стюарт
В ролях: Пол Беттани, Лукас Блэк, Тайриз Гибсон, Эдрианн Палики, Джон Тенни, Уилла Холлэнд, Кейт Уолш, Кевин Дюран, Чарльз С. Даттон, Деннис Куэйд
Описание фильма:
Бог окончательно разуверился в человечестве и послал ангелов смерти стереть свое творение с лица земли. На защиту людей встал лишь архангел Михаил, объединив под своим командованием горстку изгоев, которые в закусочной посреди пустыни терпеливо ожидают рождения Мессии.
Страна: США
Студия: Bold Films
Продолжительность: 01:40:08
Перевод: Дублированный (Лицензия!)
Субтитры: Вшитые, отключаемые
Язык субтитров: Русский (Full), Английский (Full)

Дата мировой премьеры: 21 января 2010, США Голливуд, Калифорния
Дата российской премьеры: 28 января 2010, «BVSPR Sony»
Дата выхода DVD релиза: 25 февраля 2010, «Columbia/Sony»
Дата выхода Blu-Ray релиза: 24 июня 2010, «Columbia/Sony»
Файл
Формат: MKV
Кодек: MPEG-4 AVC/H.264
Качество: BDRip 720p
Видео: ~ 12.7 Мбит/сек, 1280 x 544, 59.940 кадров/сек
Аудио: AC3 5.1, 48.0 KHz, 640 Кбит/сек - Русский

MediaInfo

Общее
Уникальный идентификатор : 179416740038999645158003549283533245645 (0x86FA683F57EF0D8C94E8D063E80CCCCD)
Полное имя : D:\Торренты\Legion 60fps.mkv
Формат : Matroska
Версия формата : Version 2
Размер файла : 9,49 Гбайт
Продолжительность : 1 ч. 40 м.
Общий поток : 13,6 Мбит/сек
Название фильма : Legion (2010) Blu-ray CEE 1080p AVC DD5.1
Дата кодирования : UTC 2015-01-07 14:55:32
Программа кодирования : mkvmerge v6.9.1 ('Blue Panther') 64bit built on Apr 18 2014 18:23:38
Библиотека кодирования : libebml v1.3.0 + libmatroska v1.4.1
Видео
Идентификатор : 1
Формат : AVC
Формат/Информация : Advanced Video Codec
Профиль формата : High@L4.1
Параметр CABAC формата : Да
Параметр ReFrames формата : 6 кадров
Идентификатор кодека : V_MPEG4/ISO/AVC
Продолжительность : 1 ч. 40 м.
Битрейт : 12,7 Мбит/сек
Ширина : 1280 пикселей
Высота : 544 пикселя
Соотношение сторон : 2,35:1
Режим частоты кадров : Постоянный
Частота кадров : 59,880 кадров/сек
Частота кадров в оригинале : 59,940 кадров/сек
Цветовое пространство : YUV
Субдискретизация насыщенности : 4:2:0
Битовая глубина : 8 бит
Тип развёртки : Прогрессивная
Бит/(Пиксели*Кадры) : 0.304
Размер потока : 8,86 Гбайт (93%)
Заголовок : Release by mimok
Библиотека кодирования : x264 core 125 r2208 d9d2288
Настройки программы : cabac=1 / ref=6 / deblock=0:0:0 / analyse=0x3:0x133 / me=umh / subme=8 / psy=1 / psy_rd=1.00:0.15 / mixed_ref=1 / me_range=20 / chroma_me=1 / trellis=2 / 8x8dct=1 / cqm=0 / deadzone=21,11 / fast_pskip=0 / chroma_qp_offset=-3 / threads=6 / lookahead_threads=1 / sliced_threads=0 / nr=0 / decimate=0 / interlaced=0 / bluray_compat=0 / constrained_intra=0 / bframes=8 / b_pyramid=2 / b_adapt=2 / b_bias=0 / direct=1 / weightb=1 / open_gop=0 / weightp=2 / keyint=600 / keyint_min=59 / scenecut=40 / intra_refresh=0 / rc=crf / mbtree=0 / crf=17.0 / qcomp=0.63 / qpmin=10 / qpmax=51 / qpstep=4 / ip_ratio=1.40 / pb_ratio=1.30 / aq=1:1.20
Default : Да
Forced : Нет
Аудио
Идентификатор : 2
Формат : AC-3
Формат/Информация : Audio Coding 3
Расширение режима : CM (complete main)
Параметр Endianness формата : Big
Идентификатор кодека : A_AC3
Продолжительность : 1 ч. 40 м.
Вид битрейта : Постоянный
Битрейт : 640 Кбит/сек
Каналы : 6 каналов
Расположение каналов : Front: L C R, Side: L R, LFE
Частота : 48,0 КГц
Битовая глубина : 16 бит
Метод сжатия : С потерями
Размер потока : 458 Мбайт (5%)
Заголовок : Dub
Язык : Russian
Default : Да
Forced : Нет
Текст #1
Идентификатор : 3
Формат : UTF-8
Идентификатор кодека : S_TEXT/UTF8
Идентификатор кодека/Информация : UTF-8 Plain Text
Заголовок : Full
Язык : Russian
Default : Да
Forced : Нет
Текст #2
Идентификатор : 4
Формат : UTF-8
Идентификатор кодека : S_TEXT/UTF8
Идентификатор кодека/Информация : UTF-8 Plain Text
Заголовок : Full
Язык : English
Default : Нет
Forced : Нет

Скринлист

Скриншоты:

[Цитировать]
Kryl

Это что , за новый рейтинг ?

[Цитировать]
mimok

1468Это что , за новый рейтинг ?
рейтинг ХДКлуба, решил приплести сюда, блюрик у них качнул

[Цитировать]
Fragrance

класс))

[Цитировать]
Fragrance

Следующий какой фильм будете делать в 60 fps ?

[Цитировать]
mimok

да пока нет на примете ничего. Для себя буду делать Трансформеров 4 в IMAX с новым скриптом и 48fps.

[Цитировать]
Fragrance

1503да пока нет на примете ничего. Для себя буду делать Трансформеров 4 в IMAX с новым скриптом и 48fps.
Может сериал сделаете?) первый в 720 р).

[Цитировать]
mimok

1509
1503...
Может сериал сделаете?) первый в 720 р).
ага, Санту-Барбору наверно? :ag:

[Цитировать]
Kryl

Поддерживаю ....
Санта -Барбару будешь делать ... как раз до пенсии хватит , если не больше ))))

[Цитировать]
Fragrance

1510
1509
1503...
Может сериал сделаете?) первый в 720 р).
ага, Санту-Барбору наверно? :ag:
Ну зачем "Санту-Барбору" !))) Можно молодежный сериал из новинок)).

[Цитировать]
ZHz

теория большого взрыва!

[Цитировать]
Kryl

1513теория большого взрыва!
там первый сезон весь замылен ....

[Цитировать]
Marselos

1513теория большого взрыва!
Во все тяжкие )))

[Цитировать]
ZHz

KRYL, а в санта-барбаре не мыло?

[Цитировать]
mimok

1511Поддерживаю ....
Санта -Барбару будешь делать ... как раз до пенсии хватит , если не больше ))))
Можно ещё «Путеводный свет», там 15762 серии
 
Показать сообщения:    

Текущее время: 03-Дек 16:38

Часовой пояс: UTC + 3


Вы не можете начинать темы
Вы не можете отвечать на сообщения
Вы не можете редактировать свои сообщения
Вы не можете удалять свои сообщения
Вы не можете голосовать в опросах
Вы не можете прикреплять файлы к сообщениям
Вы не можете скачивать файлы