[Цитировать]
Kryl

Ледокол (2016) BDRip 1080p | 60 fps- Информация
Название: Ледокол
Год выхода: 2016
Жанр: драма
Режиссер: Николай Хомерики
Cценарий: Алексей Онищенко, Андрей Золотарев
Директор фильма: Игорь Толстунов, Сергей Козлов, Александр Козлов
В ролях: Пётр Фёдоров, Сергей Пускепалис, Анна Михалкова, Ольга Филимонова, Александр Яценко, Александр Паль, Виталий Хаев, Алексей Барабаш, Дмитрий Муляр, Артур Чиргадзе
--Сюжет:
Основано на реальных событиях. 1985 год. Навстречу ледоколу «Михаил Громов» движется огромный айсберг. Уходя от столкновения с ним, судно попадает в ледовый плен и оказывается в вынужденном дрейфе вблизи побережья Антарктиды. Вокруг зловещая тишина и жуткий холод. Горючее на исходе… Нервы на пределе… И даже если можно было бы уйти — деваться все равно некуда. У командования ледокола нет права на ошибку. Одно неверное решение — и тяжелые льды раздавят судно…- Страна: Россия
Продолжительность: 02:03:57

Файл
Кодек: MPEG4/ISO/AVC H.264
Формат: MKV
Качество: BDRip 720p | 60 fps
Видео: 1280 x 532 (2.406) | 60.000 fps | 8.0 Мбит/сек
Аудио: AC3 | 5.1 | 48 kHz | 640 kbps | 16 bit

MedifInfo

Видео
Идентификатор : 1
Формат : AVC
Формат/Информация : Advanced Video Codec
Профиль формата : High@L4.1
Параметр CABAC формата : Да
Параметр ReFrames формата : 3 кадра
Идентификатор кодека : V_MPEG4/ISO/AVC
Продолжительность : 2 ч. 3 м.
Вид битрейта : Переменный
Битрейт : 7797 Кбит/сек
Максимальный битрейт : 8000 Кбит/сек
Ширина : 1280 пикселей
Высота : 532 пикселя
Соотношение сторон : 2,40:1
Режим частоты кадров : Постоянный
Частота кадров : 60,000 кадров/сек
Стандарт вещания : PAL
Цветовое пространство : YUV
Субдискретизация насыщенности : 4:2:0
Битовая глубина : 8 бит
Тип развёртки : Прогрессивная
Бит/(Пиксели*Кадры) : 0.191
Размер потока : 6,75 Гбайт (91%)
Заголовок : www.60-fps.org
Язык : English
Default : Да
Forced : Нет
Основные цвета : BT.601 NTSC
Характеристики трансфера : BT.601
Коэффициенты матрицы : BT.601
colour_range : Limited
Аудио
Идентификатор : 2
Формат : AC-3
Формат/Информация : Audio Coding 3
Расширение режима : CM (complete main)
Параметр Endianness формата : Big
Идентификатор кодека : A_AC3
Продолжительность : 2 ч. 3 м.
Вид битрейта : Постоянный
Битрейт : 640 Кбит/сек
Каналы : 6 каналов
Расположение каналов : Front: L C R, Side: L R, LFE
Частота : 48,0 КГц
Битовая глубина : 16 бит
Метод сжатия : С потерями
Размер потока : 567 Мбайт (7%)
Заголовок : Лицензия
Язык : Russian
Default : Да
Forced : Нет
Меню
00:00:00.000 : en:00:00:00.000
00:01:27.667 : en:00:01:27.667
00:14:46.833 : en:00:14:46.833
00:29:43.208 : en:00:29:43.208
00:43:48.375 : en:00:43:48.375
01:00:09.125 : en:01:00:09.125
01:14:15.625 : en:01:14:15.625
01:29:17.625 : en:01:29:17.625
01:47:28.042 : en:01:47:28.042

Релиз подготовлен 60 - fps

 
Показать сообщения:    

Текущее время: 23-Июл 21:42

Часовой пояс: UTC + 3


Вы не можете начинать темы
Вы не можете отвечать на сообщения
Вы не можете редактировать свои сообщения
Вы не можете удалять свои сообщения
Вы не можете голосовать в опросах
Вы не можете прикреплять файлы к сообщениям
Вы не можете скачивать файлы