[Цитировать]
Kryl

Леднико́вый пери́од (англ. Ice Age) — серия мультипликационных фильмов киностудии Blue Sky Studios, повествующая о приключениях Мамонта, Саблезубого тигра, Ленивца и Белки в доисторические времена: от Ледникового периода до Дрейфа континентов. Фильмы из серии выходили в 2002-2012 годах, выход заключительного фильма запланирован на 2016 год. Планируется создание анимационного сериала по мотивам серии фильмов.
Всего в рамках франшизы было выпущено 4 полнометражных и 5 короткометражных мультфильмов (один из них вышел в двух частях), несколько видеоигр и около 10 различных книг и комиксов. В настоящее время на основе франшизы создается тематический парк в рамках 20th Century Fox World, который откроется в 2016 году. Парк будет располагаться в развлекательном комплексе «Genting Highlands» в Малайзии.

Ледниковый период / Ice Age

«Отмороженные герои»- Информация о мультфильме
Название: Ледниковый период
Оригинальное название: Ice Age
Год выхода: 2002
Жанр: мультфильм, комедия, приключения, семейный
Режиссер: Крис Уэдж, Карлос Салдана
Сценарий: Майкл Дж. Уилсон, Майкл Берг, Питер Экерман
Продюсер: Лори Форте, Джон С. Донкин, Кристофер Меледандри
Роли озвучивали: Рэй Романо, Джон Легуизамо, Денис Лири, Горан Вишнич, Джек Блэк, Седрик зе Энтертейнер, Стивен Рут, Дидрих Бейдер, Алан Тьюдик, Лорри Бэгли
--О фильтфильме:
Веселые и опасные приключения героев. 20 тыс. лет назад. Чтобы избежать приближающегося из-за наступления ледникового периода холода, животные мигрируют на юг. Однако некоторые из них все-таки решают остаться — одинокий, угрюмый мамонт Манфред, а также бесшабашный ленивец Сид.
Случайно эта парочка наталкивается на человеческого детеныша. Они решаются вернуть его людям и отправляются в путешествие. По пути они встречают саблезубого хитрого тигра. И теперь этой веселой компании предстоят забавные приключения!
- - Страна: США
Продолжительность: 01:21:09
-- Файл
Кодек: MPEG4/ISO/AVC H.264
Формат: MKV
Качество: BDRip-AVC
Видео: 1024x552 (1.855) | 59.940 fps | 6.0 Мбит/сек
Аудио: AC3 | 5.1 | 48 kHz | 640 kbps | 16 bit | Дублированный |
Субтитры: Русские, английские

MedifInfo

Video
ID : 1
Format : AVC
Format/Info : Advanced Video Codec
Format profile : High@L4.1
Format settings, CABAC : Yes
Format settings, ReFrames : 7 frames
Codec ID : V_MPEG4/ISO/AVC
Duration : 1h 21mn
Bit rate : 6 082 Kbps
Width : 1 024 pixels
Height : 552 pixels
Display aspect ratio : 1.855
Frame rate : 59.940 fps
Color space : YUV
Chroma subsampling : 4:2:0
Bit depth : 8 bits
Scan type : Progressive
Bits/(Pixel*Frame) : 0.180
Stream size : 3.38 GiB (89%)
Writing library : x264 core 146 r2538 121396c
Encoding settings : cabac=1 / ref=7 / deblock=1:0:0 / analyse=0x3:0x113 / me=umh / subme=11 / psy=1 / psy_rd=1.00:0.00 / mixed_ref=1 / me_range=24 / chroma_me=1 / trellis=2 / 8x8dct=1 / cqm=0 / deadzone=21,11 / fast_pskip=1 / chroma_qp_offset=-2 / threads=12 / lookahead_threads=3 / sliced_threads=0 / nr=0 / decimate=1 / interlaced=0 / bluray_compat=0 / constrained_intra=0 / bframes=16 / b_pyramid=2 / b_adapt=2 / b_bias=0 / direct=1 / weightb=1 / open_gop=0 / weightp=2 / keyint=250 / keyint_min=25 / scenecut=40 / intra_refresh=0 / rc=2pass / mbtree=0 / bitrate=6082 / ratetol=1.0 / qcomp=0.60 / qpmin=0 / qpmax=69 / qpstep=4 / cplxblur=20.0 / qblur=0.5 / ip_ratio=1.40 / pb_ratio=1.30 / aq=1:1.00
Language : English
Default : Yes
Forced : No
Audio
ID : 2
Format : AC-3
Format/Info : Audio Coding 3
Mode extension : CM (complete main)
Codec ID : A_AC3
Duration : 1h 21mn
Bit rate mode : Constant
Bit rate : 640 Kbps
Channel(s) : 6 channels
Channel positions : Front: L C R, Side: L R, LFE
Sampling rate : 48.0 KHz
Bit depth : 16 bits
Compression mode : Lossy
Stream size : 372 MiB (10%)
Title : Дубляж
Language : Russian
Default : Yes
Forced : No
Text #1
ID : 3
Format : PGS
Muxing mode : zlib
Codec ID : S_HDMV/PGS
Codec ID/Info : The same subtitle format used on BDs/HD-DVDs
Title : RUS.SUB
Language : Russian
Default : Yes
Forced : No
Text #2
ID : 4
Format : PGS
Muxing mode : zlib
Codec ID : S_HDMV/PGS
Codec ID/Info : The same subtitle format used on BDs/HD-DVDs
Title : ENG.SUB
Language : English
Default : No
Forced : No
Menu
00:00:00.000 : en:Chapter 00
00:03:52.438 : en:Chapter 01
00:05:21.362 : en:Chapter 02
00:09:31.485 : en:Chapter 03
00:14:41.672 : en:Chapter 04
00:17:47.775 : en:Chapter 05
00:25:23.688 : en:Chapter 06
00:27:41.326 : en:Chapter 07
00:31:26.799 : en:Chapter 08
00:34:59.931 : en:Chapter 09
00:42:27.335 : en:Chapter 10
00:48:15.474 : en:Chapter 11
00:51:49.981 : en:Chapter 12
00:53:00.050 : en:Chapter 13
00:56:03.443 : en:Chapter 14
00:57:05.880 : en:Chapter 15
01:00:22.117 : en:Chapter 16
01:08:13.755 : en:Chapter 17
01:13:31.823 : en:Chapter 18
01:15:26.479 : en:Chapter 19

Ледниковый период 2: Глобальное потепление / Ice Age: The Meltdown

«Зима закончилась!»- Информация о мультфильме
Название: Ледниковый период 2: Глобальное потепление
Оригинальное название: Ice Age: The Meltdown
Год выхода: 2006
Жанр: мультфильм, комедия, приключения, семейный
Режиссер: Карлос Салдана
Сценарий: Питер Галк, Джерри Суоллоу, Джим Хехт
Продюсер: Лори Форте, Боб Гордон, Кристофер Меледандри
Роли озвучивали: Рэй Романо, Джон Легуизамо, Дэнис Лири, Шонн Уильям Скотт, Джош Пек, Куин Латифа, Уилл Арнетт, Джей Лено, Крис Уэдж, Питер Экерман
--О фильтфильме:
Саблезубый тигр Диего, мамонт Манфред, грызун Скрэт и ленивец Сид дожили до глобального потепления. С одной стороны, это круто — ледяная пустыня превратилась в настоящий аквапарк, где можно принимать теплые ванны и резвиться под сенью струй. С другой — не очень: стремительный паводок идет прямиком к их родной долине.
Теперь ответственным животным придется спасать соседей от потопа, что довольно проблематично — строить ковчег совершенно не из чего, кроме как из талого снега. Но не беспокойтесь — эвакуация разнообразной живности в сухое место пройдет не менее суетливо, смешно и успешно, чем и прошлая операция по возвращению человеческого детеныша в лоно семьи.
- - Страна: США
Продолжительность: 01:30:35
-- Файл
Кодек: MPEG4/ISO/AVC H.264
Формат: MKV
Качество: BDRip-AVC
Видео: 1024x552 (1.855) | 59.940 fps | 5.5 Мбит/сек
Аудио: AC3 | 5.1 | 48 kHz | 640 kbps | 16 bit | Дублированный |
Субтитры: Русские, английские

MedifInfo

Video
ID : 1
Format : AVC
Format/Info : Advanced Video Codec
Format profile : High@L4.1
Format settings, CABAC : Yes
Format settings, ReFrames : 7 frames
Codec ID : V_MPEG4/ISO/AVC
Duration : 1h 30mn
Bit rate : 5 506 Kbps
Width : 1 024 pixels
Height : 552 pixels
Display aspect ratio : 1.855
Frame rate : 59.940 fps
Color space : YUV
Chroma subsampling : 4:2:0
Bit depth : 8 bits
Scan type : Progressive
Bits/(Pixel*Frame) : 0.163
Stream size : 3.41 GiB (88%)
Writing library : x264 core 146 r2538 121396c
Encoding settings : cabac=1 / ref=7 / deblock=1:0:0 / analyse=0x3:0x113 / me=umh / subme=11 / psy=1 / psy_rd=1.00:0.00 / mixed_ref=1 / me_range=24 / chroma_me=1 / trellis=2 / 8x8dct=1 / cqm=0 / deadzone=21,11 / fast_pskip=1 / chroma_qp_offset=-2 / threads=12 / lookahead_threads=3 / sliced_threads=0 / nr=0 / decimate=1 / interlaced=0 / bluray_compat=0 / constrained_intra=0 / bframes=16 / b_pyramid=2 / b_adapt=2 / b_bias=0 / direct=1 / weightb=1 / open_gop=0 / weightp=2 / keyint=250 / keyint_min=25 / scenecut=40 / intra_refresh=0 / rc=2pass / mbtree=0 / bitrate=5506 / ratetol=1.0 / qcomp=0.60 / qpmin=0 / qpmax=69 / qpstep=4 / cplxblur=20.0 / qblur=0.5 / ip_ratio=1.40 / pb_ratio=1.30 / aq=1:1.00
Language : English
Default : Yes
Forced : No
Audio
ID : 2
Format : AC-3
Format/Info : Audio Coding 3
Mode extension : CM (complete main)
Codec ID : A_AC3
Duration : 1h 30mn
Bit rate mode : Constant
Bit rate : 640 Kbps
Channel(s) : 6 channels
Channel positions : Front: L C R, Side: L R, LFE
Sampling rate : 48.0 KHz
Bit depth : 16 bits
Compression mode : Lossy
Stream size : 415 MiB (10%)
Title : Дубляж
Language : Russian
Default : Yes
Forced : No
Text #1
ID : 3
Format : PGS
Muxing mode : zlib
Codec ID : S_HDMV/PGS
Codec ID/Info : The same subtitle format used on BDs/HD-DVDs
Title : RUS.SUB
Language : Russian
Default : Yes
Forced : No
Text #2
ID : 4
Format : PGS
Muxing mode : zlib
Codec ID : S_HDMV/PGS
Codec ID/Info : The same subtitle format used on BDs/HD-DVDs
Title : ENG.SUB
Language : English
Default : No
Forced : No
Menu
00:00:00.000 : en:Chapter 00
00:06:19.295 : en:Chapter 01
00:07:42.670 : en:Chapter 02
00:10:45.394 : en:Chapter 03
00:15:23.254 : en:Chapter 04
00:17:42.935 : en:Chapter 05
00:19:23.161 : en:Chapter 06
00:21:40.923 : en:Chapter 07
00:23:14.267 : en:Chapter 08
00:27:11.837 : en:Chapter 09
00:30:32.247 : en:Chapter 10
00:35:44.809 : en:Chapter 11
00:38:48.659 : en:Chapter 12
00:42:26.751 : en:Chapter 13
00:45:49.704 : en:Chapter 14
00:47:44.652 : en:Chapter 15
00:50:17.681 : en:Chapter 16
00:54:04.490 : en:Chapter 17
00:58:59.244 : en:Chapter 18
01:01:06.788 : en:Chapter 19
01:05:11.114 : en:Chapter 20
01:10:38.024 : en:Chapter 21
01:20:55.475 : en:Chapter 22
01:23:34.634 : en:Chapter 23

Ледниковый период 3: Эра динозавров / Ice Age: The Meltdown

«The sub-zero heroes are back, on an incredible adventure... for the ages»- Информация о мультфильме
Название: Ледниковый период 3: Эра динозавров
Оригинальное название: Ice Age: The Meltdown
Год выхода: 2009
Жанр: мультфильм, комедия, приключения, семейный
Режиссер: Карлос Салдана, Майк Тёрмайер
Сценарий: Питер Экерман, Майкл Берг, Йони Бреннер
Продюсер: Джон С. Донкин, Лори Форте, Крис Уэдж
Роли озвучивали: Джон Легуизамо, Куин Латифа, Денис Лири, Саймон Пегг, Джош Пек, Рэй Романо, Шонн Уильям Скотт, Карен Дишер, Крис Уэдж, Юнис Чо
--О фильтфильме:
К событиям «Ледникового периода 3» жизнь главных героев мультфильма потерпела некоторые изменения. Мамонты Манфред и Элли ожидают появление на свет своего детёныша; саблезубый тигр Диего впал в раздумье о том, не стал ли он слишком «мягкотелым» в компании своих друзей; ленивец Сид, бредя желанием создать собственное племя, решился украсть несколько яиц динозавра. Отправившись спасать Сида, друзья попадают в таинственный растительный мир, скрытый под толщами льда, где они сталкиваются с динозаврами и агрессивной окружающей средой, а также знакомятся с охотником на динозавров — лаской по имени Бак.
Крысобелка Скрэт (который вновь случайным образом стал виной глобальной проблемы, открыв путь в мир динозавров) по-прежнему гоняется за своим орехом, но на этот раз у него появился конкурент — крысобелка Скрэтти, однако, одновременно с одержимой борьбой за орех, эти двое влюбляются друг в друга.
- - Страна: США
Продолжительность: 01:34:03
-- Файл
Кодек: MPEG4/ISO/AVC H.264
Формат: MKV
Качество: BDRip-AVC
Видео: 1024x552 (1.855) | 59.940 fps | 5.2 Мбит/сек
Аудио: AC3 | 5.1 | 48 kHz | 640 kbps | 16 bit | Дублированный |
Субтитры: Русские, английские

MedifInfo

Video
ID : 1
Format : AVC
Format/Info : Advanced Video Codec
Format profile : High@L4.1
Format settings, CABAC : Yes
Format settings, ReFrames : 7 frames
Codec ID : V_MPEG4/ISO/AVC
Duration : 1h 34mn
Bit rate : 5 268 Kbps
Width : 1 024 pixels
Height : 552 pixels
Display aspect ratio : 1.855
Frame rate : 59.940 fps
Color space : YUV
Chroma subsampling : 4:2:0
Bit depth : 8 bits
Scan type : Progressive
Bits/(Pixel*Frame) : 0.155
Stream size : 3.39 GiB (87%)
Writing library : x264 core 146 r2538 121396c
Encoding settings : cabac=1 / ref=7 / deblock=1:0:0 / analyse=0x3:0x113 / me=umh / subme=11 / psy=1 / psy_rd=1.00:0.00 / mixed_ref=1 / me_range=24 / chroma_me=1 / trellis=2 / 8x8dct=1 / cqm=0 / deadzone=21,11 / fast_pskip=1 / chroma_qp_offset=-2 / threads=12 / lookahead_threads=3 / sliced_threads=0 / nr=0 / decimate=1 / interlaced=0 / bluray_compat=0 / constrained_intra=0 / bframes=16 / b_pyramid=2 / b_adapt=2 / b_bias=0 / direct=1 / weightb=1 / open_gop=0 / weightp=2 / keyint=250 / keyint_min=25 / scenecut=40 / intra_refresh=0 / rc=2pass / mbtree=0 / bitrate=5268 / ratetol=1.0 / qcomp=0.60 / qpmin=0 / qpmax=69 / qpstep=4 / cplxblur=20.0 / qblur=0.5 / ip_ratio=1.40 / pb_ratio=1.30 / aq=1:1.00
Language : English
Default : Yes
Forced : No
Audio
ID : 2
Format : AC-3
Format/Info : Audio Coding 3
Mode extension : CM (complete main)
Codec ID : A_AC3
Duration : 1h 34mn
Bit rate mode : Constant
Bit rate : 640 Kbps
Channel(s) : 6 channels
Channel positions : Front: L C R, Side: L R, LFE
Sampling rate : 48.0 KHz
Bit depth : 16 bits
Compression mode : Lossy
Stream size : 431 MiB (11%)
Title : Дубляж
Language : Russian
Default : Yes
Forced : No
Text #1
ID : 3
Format : PGS
Muxing mode : zlib
Codec ID : S_HDMV/PGS
Codec ID/Info : The same subtitle format used on BDs/HD-DVDs
Title : RUS.SUB
Language : Russian
Default : Yes
Forced : No
Text #2
ID : 4
Format : PGS
Muxing mode : zlib
Codec ID : S_HDMV/PGS
Codec ID/Info : The same subtitle format used on BDs/HD-DVDs
Title : ENG.SUB
Language : English
Default : No
Forced : No
Menu
00:00:00.000 : en:Chapter 00
00:03:10.814 : en:Chapter 01
00:10:38.846 : en:Chapter 02
00:16:05.630 : en:Chapter 03
00:20:00.449 : en:Chapter 04
00:24:07.653 : en:Chapter 05
00:27:29.646 : en:Chapter 06
00:31:47.571 : en:Chapter 07
00:36:10.668 : en:Chapter 08
00:41:11.594 : en:Chapter 09
00:48:29.072 : en:Chapter 10
00:50:46.333 : en:Chapter 11
00:57:03.001 : en:Chapter 12
00:58:06.148 : en:Chapter 13
01:03:11.286 : en:Chapter 14
01:08:05.039 : en:Chapter 15
01:11:37.042 : en:Chapter 16
01:16:00.305 : en:Chapter 17
01:21:05.068 : en:Chapter 18
01:26:50.121 : en:Chapter 19
01:34:03.054 : en:Chapter 20

Ледниковый период 4: Континентальный дрейф / Ice Age: Continental Drift

«Успей увидеть, а то уплывет»- Информация о мультфильме
Название: Ледниковый период 4: Континентальный дрейф
Оригинальное название: Ice Age: Continental Drift
Год выхода: 2012
Жанр: мультфильм, комедия, приключения, семейный
Режиссер: Стив Мартино, Майк Тёрмайер
Сценарий: Майкл Берг, Джейсон Фукс, Лори Форте
Продюсер: Джон С. Донкин, Лори Форте, Карлос Салдана
Роли озвучивали: Рэй Романо, Джон Легуизамо, Куин Латифа, Дэнис Лири, Джош Пек, Питер Динклэйдж, Кеке Палмер, Дженнифер Лопез, Ник Фрост, Азиз Ансари
--О фильтфильме:
После приключений под землей прошло семь лет. Случился дрейф континентов. Главные герои мультфильма, отделённые от стада, вынуждены использовать айсберг в качестве плота. Они пересекают океан и попадают в неизвестные им ранее земли с экзотическими животными и пиратами, враждебно настроенными к ним. Скрэту удаётся получить свой жёлудь, но он перемещается в новые для него земли.- - Страна: США
Продолжительность: 01:27:45
-- Файл
Кодек: MPEG4/ISO/AVC H.264
Формат: MKV
Качество: BDRip-AVC
Видео: 1024x432 (2.35:1) | 59.940 fps | 5.5 Мбит/сек
Аудио: AC3 | 5.1 | 48 kHz | 640 kbps | 16 bit | Дублированный |
Субтитры: Русские, английские

MedifInfo

Video
ID : 1
Format : AVC
Format/Info : Advanced Video Codec
Format profile : High@L4.1
Format settings, CABAC : Yes
Format settings, ReFrames : 7 frames
Codec ID : V_MPEG4/ISO/AVC
Duration : 1h 27mn
Bit rate : 5 556 Kbps
Width : 1 024 pixels
Height : 432 pixels
Display aspect ratio : 2.35:1
Frame rate : 59.940 fps
Color space : YUV
Chroma subsampling : 4:2:0
Bit depth : 8 bits
Scan type : Progressive
Bits/(Pixel*Frame) : 0.210
Stream size : 3.33 GiB (88%)
Writing library : x264 core 146 r2538 121396c
Encoding settings : cabac=1 / ref=7 / deblock=1:0:0 / analyse=0x3:0x113 / me=umh / subme=11 / psy=1 / psy_rd=1.00:0.00 / mixed_ref=1 / me_range=24 / chroma_me=1 / trellis=2 / 8x8dct=1 / cqm=0 / deadzone=21,11 / fast_pskip=1 / chroma_qp_offset=-2 / threads=12 / lookahead_threads=3 / sliced_threads=0 / nr=0 / decimate=1 / interlaced=0 / bluray_compat=0 / constrained_intra=0 / bframes=16 / b_pyramid=2 / b_adapt=2 / b_bias=0 / direct=1 / weightb=1 / open_gop=0 / weightp=2 / keyint=250 / keyint_min=25 / scenecut=40 / intra_refresh=0 / rc=2pass / mbtree=0 / bitrate=5556 / ratetol=1.0 / qcomp=0.60 / qpmin=0 / qpmax=69 / qpstep=4 / cplxblur=20.0 / qblur=0.5 / ip_ratio=1.40 / pb_ratio=1.30 / aq=1:1.00
Language : English
Default : Yes
Forced : No
Audio
ID : 2
Format : AC-3
Format/Info : Audio Coding 3
Mode extension : CM (complete main)
Codec ID : A_AC3
Duration : 1h 27mn
Bit rate mode : Constant
Bit rate : 640 Kbps
Channel(s) : 6 channels
Channel positions : Front: L C R, Side: L R, LFE
Sampling rate : 48.0 KHz
Bit depth : 16 bits
Compression mode : Lossy
Stream size : 402 MiB (10%)
Title : Дубляж
Language : Russian
Default : Yes
Forced : No
Text #1
ID : 3
Format : UTF-8
Codec ID : S_TEXT/UTF8
Codec ID/Info : UTF-8 Plain Text
Title : RUS.SUB
Language : Russian
Default : Yes
Forced : No
Text #2
ID : 4
Format : UTF-8
Codec ID : S_TEXT/UTF8
Codec ID/Info : UTF-8 Plain Text
Title : ENG.SUB
Language : English
Default : No
Forced : No
Menu
00:00:00.000 : en:00:00:00.000
00:03:24.037 : en:00:03:24.037
00:05:07.224 : en:00:05:07.224
00:09:33.406 : en:00:09:33.406
00:13:08.705 : en:00:13:08.705
00:15:55.329 : en:00:15:55.329
00:18:22.643 : en:00:18:22.643
00:22:23.717 : en:00:22:23.717
00:25:56.555 : en:00:25:56.555
00:29:17.965 : en:00:29:17.965
00:32:57.601 : en:00:32:57.601
00:36:14.381 : en:00:36:14.381
00:38:41.653 : en:00:38:41.653
00:43:48.709 : en:00:43:48.709
00:45:29.644 : en:00:45:29.644
00:49:38.976 : en:00:49:38.976
00:53:49.476 : en:00:53:49.476
00:57:22.856 : en:00:57:22.856
01:02:31.039 : en:01:02:31.039
01:08:08.334 : en:01:08:08.334
01:11:10.475 : en:01:11:10.475
01:13:14.640 : en:01:13:14.640
01:16:53.400 : en:01:16:53.400
01:19:23.634 : en:01:19:23.634


Последний раз редактировалось: Kryl (2016-01-30 12:06), всего редактировалось 1 раз

[Цитировать]
Тимур Артыков

Почему нельзя было сделать в полноценном размере экрана, а не уменьшать её. Даже не знаю как смотреть такие рипы. Извиняюсь, но автор данного рипа уж больно :pleasantry: "без любви" :pleasantry: делал. Наверное хотел сэкономить время

[Цитировать]
Cage969

Тимур Артыков, бред написал.
В фильмах сохранено соотношение сторон, и черные полосы сверху и снизу - абсолютно нормально.
Раздающему спасибо и раздача.

[Цитировать]
666zinger666

3663Почему нельзя было сделать в полноценном размере экрана, а не уменьшать её. Даже не знаю как смотреть такие рипы. Извиняюсь, но автор данного рипа уж больно :pleasantry: "без любви" :pleasantry: делал. Наверное хотел сэкономить время
Не увсех инет может вытягивать 50-100г в сутки (скорее этот рип так и сделан качество кулл плавность очутима) Улыбаюсь
 
Показать сообщения:    

Текущее время: 19-Окт 19:13

Часовой пояс: UTC + 3


Вы не можете начинать темы
Вы не можете отвечать на сообщения
Вы не можете редактировать свои сообщения
Вы не можете удалять свои сообщения
Вы не можете голосовать в опросах
Вы не можете прикреплять файлы к сообщениям
Вы не можете скачивать файлы