Топ Топиков за 24 часа
 
Зверопой / Sing (2016) BDRip 1080p | 60 fps Моана / Moana (2016) BDRip 720p | 60 fps В поисках Дори / Finding Dory (2016) BDRip 720p | 60 fps Босс-молокосос / The Boss Baby (2017) BDRip 1080p | 60 fps Тайная жизнь домашних животных / The Secret Life of Pets (2016) BDRip 1080p | 60 fps Зверополис / Zootopia (2016) BDRip 1080p | 60 fps Зверополис / Zootopia (2016) BDRip 720p | 60 fps Тролли / Trolls (2016) BDRip 720p | 60 fps Босс-молокосос / The Boss Baby (2017) BDRip 720p | 60 fps Моана / Moana (2016) BDRip 720p | 60 fps Лего Фильм: Бэтмен / The LEGO Batman Movie (2017) BDRip 1080p | 60 fps Гадкий я 3 / Despicable Me 3 (2017) BDRip 1080p | 60 fps
  1. bot

    Стаж:
    3 года 1 месяц
    Сообщений:
    413
    Пол:
    Не указан

    Ледниковый период

    -Название: Ледниковый период
    Оригинальное название: Ice Age
    Год выпуска: 2002
    Страна: США
    Жанр: мультфильм, комедия, приключения, семейный
    Продолжительность: 01:21:09
    Перевод: Дубляж
    Субтитры: русские (Полные), английские (Полные)-Режиссер: Крис Уэдж / Chris Wedge, Карлос Салдана / Carlos Saldanha-В ролях: Рэй Романо (Manfred / озвучка), Джон Легуизамо (Sid / озвучка), Дэнис Лири (Diego / озвучка), Горан Вишнич (Soto / озвучка), Джек Блэк (Zeke / озвучка), Седрик «Развлекатель» (Carl / озвучка), Стивен Рут (Frank / Start / озвучка), Дидрих Бадер (Saber-Toothed Tiger / озвучка), Алан Тьюдик (Lenny / Oscar / Dab / озвучка), Лорри Бэгли (Jennifer / озвучка), Джейн Краковски (Rachel / озвучка), Питер Экерман (Dodo / Macrauchenia / озвучка)-Описание:
    Веселые и опасные приключения героев. 20 тыс. лет назад. Чтобы избежать приближающегося из-за наступления ледникового периода холода, животные мигрируют на юг. Однако некоторые из них все-таки решают остаться - одинокий, угрюмый мамонт Манфред, а также бесшабашный ленивец Сид.
    Случайно эта парочка наталкивается на человеческого детеныша. Они решаются вернуть его людям и отправляются в путешествие. По пути они встречают саблезубого хитрого тигра. И теперь этой веселой компании предстоят забавные приключения!-Рейтинг

    imdb.com: 7.60 (247 918)
    MPAA: PG - Рекомендуется присутствие родителей-Качество: BDRip 1080p / 60 FPS
    Формат: MKV
    Видео кодек: AVC
    Аудио кодек:AC3, DTS
    Видео: AVC, 1920x1040, 10065 kbps, 59,940 fps
    Аудио №1: русский / AC3 / 5.1 / 48 kHz / 640 kbps / 16 bit |Дубляж|
    Аудио №2: английский / AC3 / 5.1 / 48 kHz / 640 kbps / 16 bit
    Аудио №3: русский / DTS / 5.1 / 48 kHz / 755 kbps / 24 bit |Дубляж|
    Навигация по главам: есть- -

    MI

    General
    Unique ID : 196352926077389051375049694037768567684 (0x93B832B0219A097B89B54EC747027B84)
    Complete name : A:1080p 60fpsЛедниковый период 1080p 60fpsЛедниковый период 1 1080p 60fps.mkv
    Format : Matroska
    Format version : Version 4 / Version 2
    File size : 7.00 GiB
    Duration : 1h 21mn
    Overall bit rate : 12.3 Mbps
    Encoded date : UTC 2014-09-20 09:13:43
    Writing application : mkvmerge v6.9.1 ('Blue Panther') 64bit built on Apr 18 2014 18:23:38
    Writing library : libebml v1.3.0 + libmatroska v1.4.1
    Video
    ID : 1
    Format : AVC
    Format/Info : Advanced Video Codec
    Format profile : High@L4.1
    Format settings, CABAC : Yes
    Format settings, ReFrames : 4 frames
    Codec ID : V_MPEG4/ISO/AVC
    Duration : 1h 21mn
    Bit rate : 10.1 Mbps
    Width : 1 920 pixels
    Height : 1 040 pixels
    Display aspect ratio : 16:9
    Frame rate : 59.940 fps
    Color space : YUV
    Chroma subsampling : 4:2:0
    Bit depth : 8 bits
    Scan type : Progressive
    Bits/(Pixel*Frame) : 0.084
    Stream size : 5.71 GiB (82%)
    Writing library : x264 core 133 r2334 a3ac64b
    Encoding settings : cabac=1 / ref=4 / deblock=1:-1:-1 / analyse=0x3:0 / me=umh / subme=9 / psy=1 / psy_rd=1.00:0.10 / mixed_ref=1 / me_range=42 / chroma_me=0 / trellis=2 / 8x8dct=1 / cqm=0 / deadzone=21,11 / fast_pskip=0 / chroma_qp_offset=-3 / threads=12 / lookahead_threads=1 / sliced_threads=0 / nr=0 / decimate=0 / interlaced=0 / bluray_compat=0 / constrained_intra=0 / bframes=5 / b_pyramid=2 / b_adapt=2 / b_bias=0 / direct=1 / weightb=1 / open_gop=0 / weightp=2 / keyint=594 / keyint_min=59 / scenecut=40 / intra_refresh=0 / rc=crf / mbtree=0 / crf=15.0 / qcomp=0.60 / qpmin=0 / qpmax=69 / qpstep=4 / ip_ratio=1.40 / pb_ratio=1.30 / aq=0
    Language : English
    Default : Yes
    Forced : No
    Audio #1
    ID : 2
    Format : AC-3
    Format/Info : Audio Coding 3
    Mode extension : CM (complete main)
    Codec ID : A_AC3
    Duration : 1h 21mn
    Bit rate mode : Constant
    Bit rate : 640 Kbps
    Channel(s) : 6 channels
    Channel positions : Front: L C R, Side: L R, LFE
    Sampling rate : 48.0 KHz
    Bit depth : 16 bits
    Compression mode : Lossy
    Stream size : 372 MiB (5%)
    Title : Дубляж
    Language : Russian
    Default : Yes
    Forced : No
    Audio #2
    ID : 3
    Format : AC-3
    Format/Info : Audio Coding 3
    Mode extension : CM (complete main)
    Codec ID : A_AC3
    Duration : 1h 21mn
    Bit rate mode : Constant
    Bit rate : 640 Kbps
    Channel(s) : 6 channels
    Channel positions : Front: L C R, Side: L R, LFE
    Sampling rate : 48.0 KHz
    Bit depth : 16 bits
    Compression mode : Lossy
    Stream size : 372 MiB (5%)
    Title : Оригинал
    Language : English
    Default : No
    Forced : No
    Audio #3
    ID : 4
    Format : DTS
    Format/Info : Digital Theater Systems
    Codec ID : A_DTS
    Duration : 1h 21mn
    Bit rate mode : Constant
    Bit rate : 755 Kbps
    Channel(s) : 6 channels
    Channel positions : Front: L C R, Side: L R, LFE
    Sampling rate : 48.0 KHz
    Bit depth : 24 bits
    Compression mode : Lossy
    Stream size : 438 MiB (6%)
    Title : Дубляж
    Language : Russian
    Default : No
    Forced : No
    Text #1
    ID : 5
    Format : UTF-8
    Codec ID : S_TEXT/UTF8
    Codec ID/Info : UTF-8 Plain Text
    Title : Полные
    Language : Russian
    Default : No
    Forced : No
    Text #2
    ID : 6
    Format : UTF-8
    Codec ID : S_TEXT/UTF8
    Codec ID/Info : UTF-8 Plain Text
    Title : Полные
    Language : English
    Default : No
    Forced : No
    Menu
    00:00:00.000 : en:00:00:00.000
    00:03:52.441 : en:00:03:52.441
    00:05:21.363 : en:00:05:21.363
    00:09:31.488 : en:00:09:31.488
    00:14:41.672 : en:00:14:41.672
    00:17:47.775 : en:00:17:47.775
    00:25:23.689 : en:00:25:23.689
    00:27:41.326 : en:00:27:41.326
    00:31:26.802 : en:00:31:26.802
    00:34:59.931 : en:00:34:59.931
    00:42:27.336 : en:00:42:27.336
    00:48:15.476 : en:00:48:15.476
    00:51:49.982 : en:00:51:49.982
    00:53:00.052 : en:00:53:00.052
    00:56:03.443 : en:00:56:03.443
    00:57:05.881 : en:00:57:05.881
    01:00:22.118 : en:01:00:22.118
    01:08:13.756 : en:01:08:13.756
    01:13:31.824 : en:01:13:31.824
    01:15:26.480 : en:01:15:26.480

    Скриншоты

    Ледниковый период 2: Глобальное потепление

    -Название: Ледниковый период 2: Глобальное потепление
    Оригинальное название: Ice Age: The Meltdown
    Год выпуска: 2006
    Страна: США
    Жанр: мультфильм, фантастика, фэнтези, боевик, мелодрама, комедия, приключения, семейный
    Продолжительность: 01:30:36
    Перевод: Дубляж
    Субтитры: русские (Полные), английские (Полные)-Режиссер: Карлос Салдана / Carlos Saldanha-В ролях: Рэй Романо (Manny, озвучка), Джон Легуизамо (Sid, озвучка), Дэнис Лири (Diego, озвучка), Шонн Уильям Скотт (Crash, озвучка), Джош Пек (Eddie, озвучка), Куин Латифа (Ellie, озвучка), Уилл Арнетт (Lone Gunslinger Vulture, озвучка), Джей Лено (Fast Tony, озвучка), Крис Уэдж (Scrat, озвучка), Питер Экерман (Dung Beetle Dad, озвучка), Кэйтлин Роуз Андерсон (Glypto Boy Billy / Beaver Girl, озвучка), Коннор Андерсон (Rhino Boy / Beaver Boy, озвучка)-Описание:
    Саблезубый тигр Диего, мамонт Манфред, грызун Скрэт и ленивец Сид дожили до глобального потепления. С одной стороны, это круто - ледяная пустыня превратилась в настоящий аквапарк, где можно принимать теплые ванны и резвиться под сенью струй. С другой - не очень: стремительный паводок идет прямиком к их родной долине.
    Теперь ответственным животным придется спасать соседей от потопа, что довольно проблематично - строить ковчег совершенно не из чего, кроме как из талого снега. Но не беспокойтесь - эвакуация разнообразной живности в сухое место пройдет не менее суетливо, смешно и успешно, чем и прошлая операция по возвращению человеческого детеныша в лоно семьи.-Рейтинг

    imdb.com: 6.90 (135 754)
    MPAA: PG - Рекомендуется присутствие родителей-Качество: BDRip 1080p / 60 FPS
    Формат: MKV
    Видео кодек: AVC
    Аудио кодек:AC3, DTS
    Видео: AVC, 1920x1032, 12793 kbps, 59,940 fps
    Аудио №1: русский / AC3 / 5.1 / 48 kHz / 640 kbps / 16 bit |Дубляж|
    Аудио №2: английский / AC3 / 5.1 / 48 kHz / 640 kbps / 16 bit
    Аудио №3: русский / DTS / 5.1 / 48 kHz / 755 kbps / 24 bit |Дубляж|
    Навигация по главам: есть- -

    MI

    General
    Unique ID : 176979136791637139972556085515067802088 (0x8524F120DFFC7C87A9C9B78E4BEB41E8)
    Complete name : A:1080p 60fpsЛедниковый период 1080p 60fpsЛедниковый период 2 1080p 60fps.mkv
    Format : Matroska
    Format version : Version 4 / Version 2
    File size : 9.57 GiB
    Duration : 1h 30mn
    Overall bit rate : 15.1 Mbps
    Encoded date : UTC 2014-09-20 06:36:39
    Writing application : mkvmerge v6.9.1 ('Blue Panther') 64bit built on Apr 18 2014 18:23:38
    Writing library : libebml v1.3.0 + libmatroska v1.4.1
    Video
    ID : 1
    Format : AVC
    Format/Info : Advanced Video Codec
    Format profile : High@L4.1
    Format settings, CABAC : Yes
    Format settings, ReFrames : 4 frames
    Codec ID : V_MPEG4/ISO/AVC
    Duration : 1h 30mn
    Bit rate : 12.8 Mbps
    Width : 1 920 pixels
    Height : 1 032 pixels
    Display aspect ratio : 1.860
    Frame rate : 59.940 fps
    Color space : YUV
    Chroma subsampling : 4:2:0
    Bit depth : 8 bits
    Scan type : Progressive
    Bits/(Pixel*Frame) : 0.108
    Stream size : 8.10 GiB (85%)
    Writing library : x264 core 133 r2334 a3ac64b
    Encoding settings : cabac=1 / ref=4 / deblock=1:-1:-1 / analyse=0x3:0 / me=umh / subme=9 / psy=1 / psy_rd=1.00:0.10 / mixed_ref=1 / me_range=42 / chroma_me=0 / trellis=2 / 8x8dct=1 / cqm=0 / deadzone=21,11 / fast_pskip=0 / chroma_qp_offset=-3 / threads=12 / lookahead_threads=1 / sliced_threads=0 / nr=0 / decimate=0 / interlaced=0 / bluray_compat=0 / constrained_intra=0 / bframes=5 / b_pyramid=2 / b_adapt=2 / b_bias=0 / direct=1 / weightb=1 / open_gop=0 / weightp=2 / keyint=594 / keyint_min=59 / scenecut=40 / intra_refresh=0 / rc=crf / mbtree=0 / crf=15.0 / qcomp=0.60 / qpmin=0 / qpmax=69 / qpstep=4 / ip_ratio=1.40 / pb_ratio=1.30 / aq=0
    Language : English
    Default : Yes
    Forced : No
    Audio #1
    ID : 2
    Format : AC-3
    Format/Info : Audio Coding 3
    Mode extension : CM (complete main)
    Codec ID : A_AC3
    Duration : 1h 30mn
    Bit rate mode : Constant
    Bit rate : 640 Kbps
    Channel(s) : 6 channels
    Channel positions : Front: L C R, Side: L R, LFE
    Sampling rate : 48.0 KHz
    Bit depth : 16 bits
    Compression mode : Lossy
    Stream size : 415 MiB (4%)
    Title : Дубляж
    Language : Russian
    Default : Yes
    Forced : No
    Audio #2
    ID : 3
    Format : AC-3
    Format/Info : Audio Coding 3
    Mode extension : CM (complete main)
    Codec ID : A_AC3
    Duration : 1h 30mn
    Bit rate mode : Constant
    Bit rate : 640 Kbps
    Channel(s) : 6 channels
    Channel positions : Front: L C R, Side: L R, LFE
    Sampling rate : 48.0 KHz
    Bit depth : 16 bits
    Compression mode : Lossy
    Stream size : 415 MiB (4%)
    Title : Оригинал
    Language : English
    Default : No
    Forced : No
    Audio #3
    ID : 4
    Format : DTS
    Format/Info : Digital Theater Systems
    Codec ID : A_DTS
    Duration : 1h 30mn
    Bit rate mode : Constant
    Bit rate : 755 Kbps
    Channel(s) : 6 channels
    Channel positions : Front: L C R, Side: L R, LFE
    Sampling rate : 48.0 KHz
    Bit depth : 24 bits
    Compression mode : Lossy
    Stream size : 489 MiB (5%)
    Title : Дубляж
    Language : Russian
    Default : No
    Forced : No
    Text #1
    ID : 5
    Format : UTF-8
    Codec ID : S_TEXT/UTF8
    Codec ID/Info : UTF-8 Plain Text
    Title : Полные
    Language : Russian
    Default : No
    Forced : No
    Text #2
    ID : 6
    Format : UTF-8
    Codec ID : S_TEXT/UTF8
    Codec ID/Info : UTF-8 Plain Text
    Title : Полные
    Language : English
    Default : No
    Forced : No
    Menu
    00:00:00.000 : en:00:00:00.000
    00:06:19.296 : en:00:06:19.296
    00:07:42.671 : en:00:07:42.671
    00:10:45.395 : en:00:10:45.395
    00:15:23.256 : en:00:15:23.256
    00:17:42.937 : en:00:17:42.937
    00:19:23.162 : en:00:19:23.162
    00:21:40.925 : en:00:21:40.925
    00:23:14.268 : en:00:23:14.268
    00:27:11.839 : en:00:27:11.839
    00:30:32.247 : en:00:30:32.247
    00:35:44.809 : en:00:35:44.809
    00:38:48.660 : en:00:38:48.660
    00:42:26.753 : en:00:42:26.753
    00:45:49.705 : en:00:45:49.705
    00:47:44.653 : en:00:47:44.653
    00:50:17.681 : en:00:50:17.681
    00:54:04.491 : en:00:54:04.491
    00:58:59.244 : en:00:58:59.244
    01:01:06.788 : en:01:01:06.788
    01:05:11.116 : en:01:05:11.116
    01:10:38.025 : en:01:10:38.025
    01:20:55.476 : en:01:20:55.476
    01:23:34.635 : en:01:23:34.635

    Скриншоты

    Ледниковый период 3: Эра динозавров

    -Название: Ледниковый период 3: Эра динозавров
    Оригинальное название: Ice Age: Dawn of the Dinosaurs
    Год выпуска: 2009
    Страна: США
    Жанр: мультфильм, комедия, приключения, семейный
    Продолжительность: 01:34:03
    Перевод: Дубляж
    Субтитры: русские (Полные), английские (Полные)-Режиссер: Карлос Салдана / Carlos Saldanha, Майк Тёрмайер / Mike Thurmeier-В ролях: Рэй Романо (Manny, озвучка), Джон Легуизамо (Sid, озвучка), Саймон Пегг (Buck, озвучка), Куин Латифа (Ellie, озвучка), Шонн Уильям Скотт (Crash, озвучка), Джош Пек (Eddie, озвучка), Дэнис Лири (Diego, озвучка), Крис Уэдж (Scrat, озвучка), Юнис Чо (Madison (Diatryma Girl), озвучка), Карен Дишер (Scratte, озвучка), Харрисон Фан (Glypto Boy, озвучка), Мэйл Флэнеган (Aardvark Mom, озвучка)-Описание:
    К событиям «Ледникового периода 3» жизнь главных героев мультфильма потерпела некоторые изменения. Мамонты Манфред и Элли ожидают появление на свет своего детёныша; саблезубый тигр Диего впал в раздумье о том, не стал ли он слишком «мягкотелым» в компании своих друзей; ленивец Сид, бредя желанием создать собственное племя, решился украсть несколько яиц динозавра. Отправившись спасать Сида, друзья попадают в таинственный растительный мир, скрытый под толщами льда, где они сталкиваются с динозаврами и агрессивной окружающей средой, а также знакомятся с охотником на динозавров - лаской по имени Бак.
    Крысобелка Скрэт (который вновь случайным образом стал виной глобальной проблемы, открыв путь в мир динозавров) по-прежнему гоняется за своим орехом, но на этот раз у него появился конкурент - крысобелка Скрэтти, однако, одновременно с одержимой борьбой за орех, эти двое влюбляются друг в друга.-Рейтинг

    imdb.com: 7.10 (121 913)
    MPAA: PG - Рекомендуется присутствие родителей-Качество: BDRip 1080p / 60 FPS
    Формат: MKV
    Видео кодек: AVC
    Аудио кодек:AC3, DTS
    Видео: AVC, 1920x1032, 13928 kbps, 59,940 fps
    Аудио №1: русский / AC3 / 5.1 / 48 kHz / 640 kbps / 16 bit |Дубляж|
    Аудио №2: английский / AC3 / 5.1 / 48 kHz / 640 kbps / 16 bit
    Аудио №3: русский / DTS / 5.1 / 48 kHz / 755 kbps / 24 bit |Дубляж|
    Навигация по главам: есть- -

    MI

    General
    Unique ID : 202468644300655134988019131214018074106 (0x98520AE059A4FD7A9ED718393C5B55FA)
    Complete name : A:1080p 60fpsЛедниковый период 1080p 60fpsЛедниковый период 3 1080p 60fps.mkv
    Format : Matroska
    Format version : Version 4 / Version 2
    File size : 10.7 GiB
    Duration : 1h 34mn
    Overall bit rate : 16.3 Mbps
    Encoded date : UTC 2014-09-20 09:01:02
    Writing application : mkvmerge v6.9.1 ('Blue Panther') 64bit built on Apr 18 2014 18:23:38
    Writing library : libebml v1.3.0 + libmatroska v1.4.1
    Video
    ID : 1
    Format : AVC
    Format/Info : Advanced Video Codec
    Format profile : High@L4.1
    Format settings, CABAC : Yes
    Format settings, ReFrames : 4 frames
    Codec ID : V_MPEG4/ISO/AVC
    Duration : 1h 34mn
    Bit rate : 13.9 Mbps
    Width : 1 920 pixels
    Height : 1 032 pixels
    Display aspect ratio : 1.860
    Frame rate : 59.940 fps
    Color space : YUV
    Chroma subsampling : 4:2:0
    Bit depth : 8 bits
    Scan type : Progressive
    Bits/(Pixel*Frame) : 0.117
    Stream size : 9.15 GiB (86%)
    Writing library : x264 core 133 r2334 a3ac64b
    Encoding settings : cabac=1 / ref=4 / deblock=1:-1:-1 / analyse=0x3:0 / me=umh / subme=9 / psy=1 / psy_rd=1.00:0.10 / mixed_ref=1 / me_range=42 / chroma_me=0 / trellis=2 / 8x8dct=1 / cqm=0 / deadzone=21,11 / fast_pskip=0 / chroma_qp_offset=-3 / threads=12 / lookahead_threads=1 / sliced_threads=0 / nr=0 / decimate=0 / interlaced=0 / bluray_compat=0 / constrained_intra=0 / bframes=5 / b_pyramid=2 / b_adapt=2 / b_bias=0 / direct=1 / weightb=1 / open_gop=0 / weightp=2 / keyint=594 / keyint_min=59 / scenecut=40 / intra_refresh=0 / rc=crf / mbtree=0 / crf=15.0 / qcomp=0.60 / qpmin=0 / qpmax=69 / qpstep=4 / ip_ratio=1.40 / pb_ratio=1.30 / aq=0
    Language : English
    Default : Yes
    Forced : No
    Audio #1
    ID : 2
    Format : AC-3
    Format/Info : Audio Coding 3
    Mode extension : CM (complete main)
    Codec ID : A_AC3
    Duration : 1h 34mn
    Bit rate mode : Constant
    Bit rate : 640 Kbps
    Channel(s) : 6 channels
    Channel positions : Front: L C R, Side: L R, LFE
    Sampling rate : 48.0 KHz
    Bit depth : 16 bits
    Compression mode : Lossy
    Stream size : 431 MiB (4%)
    Title : Дубляж
    Language : Russian
    Default : Yes
    Forced : No
    Audio #2
    ID : 3
    Format : AC-3
    Format/Info : Audio Coding 3
    Mode extension : CM (complete main)
    Codec ID : A_AC3
    Duration : 1h 34mn
    Bit rate mode : Constant
    Bit rate : 640 Kbps
    Channel(s) : 6 channels
    Channel positions : Front: L C R, Side: L R, LFE
    Sampling rate : 48.0 KHz
    Bit depth : 16 bits
    Compression mode : Lossy
    Stream size : 431 MiB (4%)
    Title : Оригинал
    Language : English
    Default : No
    Forced : No
    Audio #3
    ID : 4
    Format : DTS
    Format/Info : Digital Theater Systems
    Codec ID : A_DTS
    Duration : 1h 34mn
    Bit rate mode : Constant
    Bit rate : 755 Kbps
    Channel(s) : 6 channels
    Channel positions : Front: L C R, Side: L R, LFE
    Sampling rate : 48.0 KHz
    Bit depth : 24 bits
    Compression mode : Lossy
    Stream size : 508 MiB (5%)
    Title : Дубляж
    Language : Russian
    Default : No
    Forced : No
    Text #1
    ID : 5
    Format : UTF-8
    Codec ID : S_TEXT/UTF8
    Codec ID/Info : UTF-8 Plain Text
    Title : Полные
    Language : Russian
    Default : No
    Forced : No
    Text #2
    ID : 6
    Format : UTF-8
    Codec ID : S_TEXT/UTF8
    Codec ID/Info : UTF-8 Plain Text
    Title : Полные
    Language : English
    Default : No
    Forced : No
    Menu #1
    00:00:00.000 : en:Chapter 00
    00:03:10.814 : en:Chapter 01
    00:10:38.846 : en:Chapter 02
    00:16:05.630 : en:Chapter 03
    00:20:00.449 : en:Chapter 04
    00:24:07.653 : en:Chapter 05
    00:27:29.646 : en:Chapter 06
    00:31:47.571 : en:Chapter 07
    00:36:10.668 : en:Chapter 08
    00:41:11.594 : en:Chapter 09
    00:48:29.072 : en:Chapter 10
    00:50:46.333 : en:Chapter 11
    00:57:03.001 : en:Chapter 12
    00:58:06.148 : en:Chapter 13
    01:03:11.286 : en:Chapter 14
    01:08:05.039 : en:Chapter 15
    01:11:37.042 : en:Chapter 16
    01:16:00.305 : en:Chapter 17
    01:21:05.068 : en:Chapter 18
    01:26:50.121 : en:Chapter 19
    01:34:03.054 : en:Chapter 20
    Menu #2
    00:00:00.000 : en:00:00:00.000
    00:03:10.816 : en:00:03:10.816
    00:10:38.847 : en:00:10:38.847
    00:16:05.631 : en:00:16:05.631
    00:20:00.449 : en:00:20:00.449
    00:24:07.655 : en:00:24:07.655
    00:27:29.648 : en:00:27:29.648
    00:31:47.572 : en:00:31:47.572
    00:36:10.668 : en:00:36:10.668
    00:41:11.594 : en:00:41:11.594
    00:48:29.073 : en:00:48:29.073
    00:50:46.335 : en:00:50:46.335
    00:57:03.003 : en:00:57:03.003
    00:58:06.149 : en:00:58:06.149
    01:03:11.287 : en:01:03:11.287
    01:08:05.039 : en:01:08:05.039
    01:11:37.043 : en:01:11:37.043
    01:16:00.306 : en:01:16:00.306
    01:21:05.069 : en:01:21:05.069
    01:26:50.122 : en:01:26:50.122

    Скриншоты

    Ледниковый период 4: Континентальный дрейф

    -Название: Ледниковый период 4: Континентальный дрейф
    Оригинальное название: Ice Age: Continental Drift
    Год выпуска: 2012
    Страна: США
    Жанр: мультфильм, комедия, приключения, семейный
    Продолжительность: 01:27:45
    Перевод: Дубляж
    Субтитры: русские (Полные), английские (Полные)-Режиссер: Стив Мартино / Steve Martino, Майк Тёрмайер / Mike Thurmeier-В ролях: Рэй Романо (Manny, озвучка), Джон Легуизамо (Sid, озвучка), Куин Латифа (Ellie, озвучка), Дэнис Лири (Diego, озвучка), Джош Пек (Eddie, озвучка), Питер Динклэйдж (Captain Gutt, озвучка), Кеке Палмер (Peaches, озвучка), Дженнифер Лопез (Shira, озвучка), Ник Фрост (Flynn, озвучка), Азиз Ансари (Squint, озвучка), Джой Бехар (Eunice, озвучка), Кристофер Кэмпбелл (Creature Siren / Various, озвучка)-Описание:
    После приключений под землей прошло семь лет. Случился дрейф континентов. Главные герои мультфильма, отделённые от стада, вынуждены использовать айсберг в качестве плота. Они пересекают океан и попадают в неизвестные им ранее земли с экзотическими животными и пиратами, враждебно настроенными к ним. Скрэту удаётся получить свой жёлудь, но он перемещается в новые для него земли.-Рейтинг

    imdb.com: 6.70 (106 181)
    MPAA: PG - Рекомендуется присутствие родителей-Качество: BDRip 1080p / 60 FPS
    Формат: MKV
    Видео кодек: AVC
    Аудио кодек:AC3, DTS
    Видео: AVC, 1920x800, 12092 kbps, 59,940 fps
    Аудио №1: русский / AC3 / 5.1 / 48 kHz / 640 kbps / 16 bit |Дубляж|
    Аудио №2: английский / AC3 / 5.1 / 48 kHz / 640 kbps / 16 bit
    Аудио №3: русский / DTS / 5.1 / 48 kHz / 755 kbps / 24 bit |Дубляж|
    Навигация по главам: есть- -

    MI

    General
    Unique ID : 216303048384441179015114735198201714620 (0xA2BA73A8CF513CD6B85BC7E7DDC817BC)
    Complete name : A:1080p 60fpsЛедниковый период 1080p 60fpsЛедниковый период 4 1080p 60fps.mkv
    Format : Matroska
    Format version : Version 4 / Version 2
    File size : 8.84 GiB
    Duration : 1h 27mn
    Overall bit rate : 14.4 Mbps
    Encoded date : UTC 2014-09-20 11:08:05
    Writing application : mkvmerge v6.9.1 ('Blue Panther') 64bit built on Apr 18 2014 18:23:38
    Writing library : libebml v1.3.0 + libmatroska v1.4.1
    Video
    ID : 1
    Format : AVC
    Format/Info : Advanced Video Codec
    Format profile : High@L4.1
    Format settings, CABAC : Yes
    Format settings, ReFrames : 4 frames
    Codec ID : V_MPEG4/ISO/AVC
    Duration : 1h 27mn
    Bit rate : 12.1 Mbps
    Width : 1 920 pixels
    Height : 800 pixels
    Display aspect ratio : 2.40:1
    Frame rate : 59.940 fps
    Color space : YUV
    Chroma subsampling : 4:2:0
    Bit depth : 8 bits
    Scan type : Progressive
    Bits/(Pixel*Frame) : 0.131
    Stream size : 7.41 GiB (84%)
    Writing library : x264 core 133 r2334 a3ac64b
    Encoding settings : cabac=1 / ref=4 / deblock=1:-1:-1 / analyse=0x3:0 / me=umh / subme=9 / psy=1 / psy_rd=1.00:0.10 / mixed_ref=1 / me_range=42 / chroma_me=0 / trellis=2 / 8x8dct=1 / cqm=0 / deadzone=21,11 / fast_pskip=0 / chroma_qp_offset=-3 / threads=12 / lookahead_threads=1 / sliced_threads=0 / nr=0 / decimate=0 / interlaced=0 / bluray_compat=0 / constrained_intra=0 / bframes=5 / b_pyramid=2 / b_adapt=2 / b_bias=0 / direct=1 / weightb=1 / open_gop=0 / weightp=2 / keyint=594 / keyint_min=59 / scenecut=40 / intra_refresh=0 / rc=crf / mbtree=0 / crf=15.0 / qcomp=0.60 / qpmin=0 / qpmax=69 / qpstep=4 / ip_ratio=1.40 / pb_ratio=1.30 / aq=0
    Language : English
    Default : Yes
    Forced : No
    Audio #1
    ID : 2
    Format : AC-3
    Format/Info : Audio Coding 3
    Mode extension : CM (complete main)
    Codec ID : A_AC3
    Duration : 1h 27mn
    Bit rate mode : Constant
    Bit rate : 640 Kbps
    Channel(s) : 6 channels
    Channel positions : Front: L C R, Side: L R, LFE
    Sampling rate : 48.0 KHz
    Bit depth : 16 bits
    Compression mode : Lossy
    Stream size : 402 MiB (4%)
    Title : Дубляж
    Language : Russian
    Default : Yes
    Forced : No
    Audio #2
    ID : 3
    Format : AC-3
    Format/Info : Audio Coding 3
    Mode extension : CM (complete main)
    Codec ID : A_AC3
    Duration : 1h 27mn
    Bit rate mode : Constant
    Bit rate : 640 Kbps
    Channel(s) : 6 channels
    Channel positions : Front: L C R, Side: L R, LFE
    Sampling rate : 48.0 KHz
    Bit depth : 16 bits
    Compression mode : Lossy
    Stream size : 402 MiB (4%)
    Title : Оригинал
    Language : English
    Default : No
    Forced : No
    Audio #3
    ID : 4
    Format : DTS
    Format/Info : Digital Theater Systems
    Codec ID : A_DTS
    Duration : 1h 27mn
    Bit rate mode : Constant
    Bit rate : 755 Kbps
    Channel(s) : 6 channels
    Channel positions : Front: L C R, Side: L R, LFE
    Sampling rate : 48.0 KHz
    Bit depth : 24 bits
    Compression mode : Lossy
    Stream size : 474 MiB (5%)
    Title : Дубляж
    Language : Russian
    Default : No
    Forced : No
    Text #1
    ID : 5
    Format : UTF-8
    Codec ID : S_TEXT/UTF8
    Codec ID/Info : UTF-8 Plain Text
    Title : Полные
    Language : Russian
    Default : No
    Forced : No
    Text #2
    ID : 6
    Format : UTF-8
    Codec ID : S_TEXT/UTF8
    Codec ID/Info : UTF-8 Plain Text
    Title : Полные
    Language : English
    Default : No
    Forced : No
    Menu
    00:00:00.000 : en:00:00:00.000
    00:03:25.038 : en:00:03:25.038
    00:05:08.225 : en:00:05:08.225
    00:09:34.407 : en:00:09:34.407
    00:13:09.705 : en:00:13:09.705
    00:15:56.330 : en:00:15:56.330
    00:18:23.644 : en:00:18:23.644
    00:22:24.718 : en:00:22:24.718
    00:25:57.556 : en:00:25:57.556
    00:29:18.965 : en:00:29:18.965
    00:32:58.601 : en:00:32:58.601
    00:36:15.381 : en:00:36:15.381
    00:38:42.653 : en:00:38:42.653
    00:43:49.710 : en:00:43:49.710
    00:45:30.644 : en:00:45:30.644
    00:49:39.977 : en:00:49:39.977
    00:53:50.477 : en:00:53:50.477
    00:57:23.857 : en:00:57:23.857
    01:02:32.040 : en:01:02:32.040
    01:08:09.335 : en:01:08:09.335
    01:11:11.475 : en:01:11:11.475
    01:13:15.641 : en:01:13:15.641
    01:16:54.401 : en:01:16:54.401
    01:19:24.634 : en:01:19:24.634

    Скриншоты

    Ледниковый период: Гигантское Рождество (ТВ)

    -Название: Ледниковый период: Гигантское Рождество (ТВ)
    Оригинальное название: Ice Age: A Mammoth Christmas
    Год выпуска: 2011
    Страна: США
    Жанр: мультфильм, короткометражка, комедия, приключения, семейный
    Продолжительность: 00:25:33
    Перевод: Дубляж
    Субтитры: русские (Полные), английские (Полные)-Режиссер: Карен Дишер / Karen Disher-В ролях: Рэй Романо (Manny, озвучка), Джон Легуизамо (Sid, озвучка), Дэнис Лири (Diego, озвучка), Куин Латифа (Ellie, озвучка), Шонн Уильям Скотт (Crash, озвучка), Джош Пек (Eddie, озвучка), Сиэра Браво (Peaches, озвучка), ТиДжей Миллер (Prancer, озвучка), Билли Гарделл (Santa, озвучка), Джуда Фридлендер (Head Mini-Sloth, озвучка), Карен Дишер (Molehog, озвучка), Синди Слэттери (Miscellaneous Animal Voices, озвучка)-Описание:
    Когда Сид случайно разрушает рождественский камень, Мэнни говорит ему, что Сид попал в черный список Санты, и что ленивцу придется лететь на северный полюс просить извинения у Санты. На северном полюсе Сид хотел все сделать как лучше, но только усугубил ситуацию. Теперь дело за Мэнни и компанией, только они объединившись сохранят Рождество для всего мира!-Рейтинг

    imdb.com: 6.50 (6415)-Качество: BDRip 1080p / 60 FPS
    Формат: MKV
    Видео кодек: AVC
    Аудио кодек:AC3
    Видео: AVC, 1920x1080, 17514 kbps, 59,940 fps
    Аудио №1: русский / AC3 / 5.1 / 48 kHz / 384 kbps / 16 bit |Дубляж|
    Аудио №2: английский / AC3 / 5.1 / 48 kHz / 640 kbps / 16 bit
    Навигация по главам: есть- -

    MI

    General
    Unique ID : 215873750850947323158779999896101626341 (0xA267C5A827DE493A83B70E657292A1E5)
    Complete name : A:1080p 60fpsЛедниковый период 1080p 60fpsЛедниковый период 5 1080p 60fps.mkv
    Format : Matroska
    Format version : Version 4 / Version 2
    File size : 3.38 GiB
    Duration : 25mn 33s
    Overall bit rate : 18.9 Mbps
    Encoded date : UTC 2014-09-24 12:41:07
    Writing application : mkvmerge v6.9.1 ('Blue Panther') 64bit built on Apr 18 2014 18:23:38
    Writing library : libebml v1.3.0 + libmatroska v1.4.1
    Video
    ID : 1
    Format : AVC
    Format/Info : Advanced Video Codec
    Format profile : High@L4.1
    Format settings, CABAC : Yes
    Format settings, ReFrames : 4 frames
    Codec ID : V_MPEG4/ISO/AVC
    Duration : 25mn 33s
    Bit rate : 17.5 Mbps
    Width : 1 920 pixels
    Height : 1 080 pixels
    Display aspect ratio : 16:9
    Frame rate : 59.940 fps
    Color space : YUV
    Chroma subsampling : 4:2:0
    Bit depth : 8 bits
    Scan type : Progressive
    Bits/(Pixel*Frame) : 0.141
    Stream size : 3.13 GiB (93%)
    Writing library : x264 core 142 r2479 dd79a61
    Encoding settings : cabac=1 / ref=4 / deblock=1:-1:-1 / analyse=0x3:0 / me=umh / subme=11 / psy=1 / psy_rd=1.00:0.10 / mixed_ref=1 / me_range=42 / chroma_me=0 / trellis=2 / 8x8dct=1 / cqm=0 / deadzone=21,11 / fast_pskip=0 / chroma_qp_offset=-3 / threads=12 / lookahead_threads=1 / sliced_threads=0 / nr=0 / decimate=0 / interlaced=0 / bluray_compat=0 / constrained_intra=0 / bframes=5 / b_pyramid=2 / b_adapt=2 / b_bias=0 / direct=1 / weightb=1 / open_gop=0 / weightp=2 / keyint=599 / keyint_min=59 / scenecut=40 / intra_refresh=0 / rc=crf / mbtree=0 / crf=15.0 / qcomp=0.60 / qpmin=0 / qpmax=69 / qpstep=4 / ip_ratio=1.40 / pb_ratio=1.30 / aq=1:0.90
    Language : English
    Default : Yes
    Forced : No
    Audio #1
    ID : 2
    Format : AC-3
    Format/Info : Audio Coding 3
    Mode extension : CM (complete main)
    Codec ID : A_AC3
    Duration : 25mn 33s
    Bit rate mode : Constant
    Bit rate : 384 Kbps
    Channel(s) : 6 channels
    Channel positions : Front: L C R, Side: L R, LFE
    Sampling rate : 48.0 KHz
    Bit depth : 16 bits
    Compression mode : Lossy
    Stream size : 70.2 MiB (2%)
    Title : Дубляж
    Language : Russian
    Default : Yes
    Forced : No
    Audio #2
    ID : 3
    Format : AC-3
    Format/Info : Audio Coding 3
    Mode extension : CM (complete main)
    Codec ID : A_AC3
    Duration : 25mn 33s
    Bit rate mode : Constant
    Bit rate : 640 Kbps
    Channel(s) : 6 channels
    Channel positions : Front: L C R, Side: L R, LFE
    Sampling rate : 48.0 KHz
    Bit depth : 16 bits
    Compression mode : Lossy
    Stream size : 117 MiB (3%)
    Title : Оригинал
    Language : English
    Default : No
    Forced : No
    Text #1
    ID : 4
    Format : UTF-8
    Codec ID : S_TEXT/UTF8
    Codec ID/Info : UTF-8 Plain Text
    Title : Полные
    Language : Russian
    Default : No
    Forced : No
    Text #2
    ID : 5
    Format : UTF-8
    Codec ID : S_TEXT/UTF8
    Codec ID/Info : UTF-8 Plain Text
    Title : Полные
    Language : English
    Default : No
    Forced : No
    Menu
    00:00:00.000 : en:Chapter 00
    00:01:10.195 : en:Chapter 01
    00:06:00.026 : en:Chapter 02
    00:06:52.453 : en:Chapter 03
    00:10:55.738 : en:Chapter 04
    00:13:41.946 : en:Chapter 05
    00:17:47.858 : en:Chapter 06
    00:21:25.575 : en:Chapter 07

    Скриншоты



Вы не можете начинать темы
Вы не можете отвечать на сообщения
Вы не можете редактировать свои сообщения
Вы не можете удалять свои сообщения
Вы не можете голосовать в опросах
Вы не можете прикреплять файлы к сообщениям
Вы не можете скачивать файлы