[Цитировать]
Гость

-Название: Леди и бродяга
Оригинальное название: Lady and the Tramp
Год выпуска: 1955
Страна: США
Жанр: мультфильм, мелодрама, комедия, приключения, семейный
Продолжительность: 01:16:36
Перевод: Дубляж
Субтитры: русские (Форсированные), русские (Полные), английские (Полные)-Режиссер: Клайд Джероними / Clyde Geronimi, Уилфред Джексон / Wilfred Jackson, Хэмильтон Ласки / Hamilton Luske-В ролях: Пегги Ли (Darling / Si / Am / Peg, озвучка), Ларри Робертс (Tramp, озвучка), Билл Бауком (Trusty, озвучка), Верна Фелтон (Aunt Sarah, озвучка), Джордж Гивот (Tony, озвучка), Стэн Фреберг (Beaver, озвучка), Ли Миллар (Jim Dear / Dog Catcher, озвучка), Барбара Ладди (Lady, озвучка), Билл Томпсон (Jock / Bull - the Bull Terrier / Policeman at Zoo / Dachsie / Joe, озвучка), Даль МакКеннон (Toughy / Professor / Pedro / Hyena, озвучка), Алан Рид (Boris, озвучка), The Mellomen (Dogs, исполнитель песни)-Описание:
Трогательная и захватывающая история сближения двух абсолютно разных собак - породистой комнатной неженки и обычной дворняги. Изящная и пушистая как игрушка, коккер-спаниельша Леди была любимицей хозяев, пока в их семье не появился младенец. Надетый намордник стал последней каплей, подтолкнувшей обиженную героиню к бегству. Но на улице ее поджидала целая куча опасностей, о существовании которых она даже не подозревала. И тогда на помощь миниатюрной черноглазой красотке пришел пес Бродяга, благородство которого было не в породе, а в душе.-Рейтинг

imdb.com: 7.40 (56 627)
MPAA: G - Нет возрастных ограничений-Автор рипа:Tiberiumsun69
-Качество: BDRip 1080p / 60 FPS
Формат: MKV
Видео кодек: AVC
Аудио кодек:AC3
Видео: AVC, 1920x744 (2.581), 10000 kbps, 59,940 fps, 0,117 bpp
Аудио №1: русский / AC3 / 5.1 / 48 kHz / 640 kbps / 16 bit |Дубляж|
Аудио №2: английский / AC3 / 5.1 / 48 kHz / 640 kbps / 16 bit
Навигация по главам: есть- -

MI

General
Unique ID : 180234603197080742207107703212630232505 (0x8797EC03AEE520E4B4283891879A4DB9)
Complete name : A:1080p 60fpsЛеди и Бродяга 1080p 60fps.mkv
Format : Matroska
Format version : Version 4 / Version 2
File size : 6.04 GiB
Duration : 1h 16mn
Overall bit rate : 11.3 Mbps
Movie name : R.G. HD-Films by Tiberiumsun69 60fps
Encoded date : UTC 2014-11-11 10:49:27
Writing application : mkvmerge v6.9.1 ('Blue Panther') 64bit built on Apr 18 2014 18:23:38
Writing library : libebml v1.3.0 + libmatroska v1.4.1
Attachment : Yes
Video
ID : 1
Format : AVC
Format/Info : Advanced Video Codec
Format profile : High@L4.1
Format settings, CABAC : Yes
Format settings, ReFrames : 4 frames
Codec ID : V_MPEG4/ISO/AVC
Duration : 1h 16mn
Bit rate : 10 000 Kbps
Width : 1 920 pixels
Height : 744 pixels
Display aspect ratio : 2.581
Frame rate : 59.940 fps
Color space : YUV
Chroma subsampling : 4:2:0
Bit depth : 8 bits
Scan type : Progressive
Bits/(Pixel*Frame) : 0.117
Stream size : 5.23 GiB (87%)
Title : R.G. HD-Films by Tiberiumsun69 60fps
Writing library : x264 core 130 r2273 b3065e6
Encoding settings : cabac=1 / ref=4 / deblock=1:-1:-1 / analyse=0x3:0 / me=umh / subme=10 / psy=1 / psy_rd=0.80:0.00 / mixed_ref=1 / me_range=32 / chroma_me=0 / trellis=2 / 8x8dct=1 / cqm=0 / deadzone=21,11 / fast_pskip=0 / chroma_qp_offset=-2 / threads=12 / lookahead_threads=1 / sliced_threads=0 / nr=0 / decimate=0 / interlaced=0 / bluray_compat=0 / constrained_intra=0 / bframes=5 / b_pyramid=2 / b_adapt=2 / b_bias=0 / direct=3 / weightb=1 / open_gop=0 / weightp=2 / keyint=250 / keyint_min=59 / scenecut=40 / intra_refresh=0 / rc_lookahead=60 / rc=2pass / mbtree=1 / bitrate=10000 / ratetol=1.0 / qcomp=0.80 / qpmin=0 / qpmax=69 / qpstep=4 / cplxblur=20.0 / qblur=0.5 / ip_ratio=1.40 / aq=1:0.80
Language : English
Default : Yes
Forced : No
Audio #1
ID : 2
Format : AC-3
Format/Info : Audio Coding 3
Mode extension : CM (complete main)
Codec ID : A_AC3
Duration : 1h 16mn
Bit rate mode : Constant
Bit rate : 640 Kbps
Channel(s) : 6 channels
Channel positions : Front: L C R, Side: L R, LFE
Sampling rate : 48.0 KHz
Bit depth : 16 bits
Compression mode : Lossy
Stream size : 351 MiB (6%)
Title : Дубляж
Language : Russian
Default : Yes
Forced : No
Audio #2
ID : 3
Format : AC-3
Format/Info : Audio Coding 3
Mode extension : CM (complete main)
Codec ID : A_AC3
Duration : 1h 16mn
Bit rate mode : Constant
Bit rate : 640 Kbps
Channel(s) : 6 channels
Channel positions : Front: L C R, Side: L R, LFE
Sampling rate : 48.0 KHz
Bit depth : 16 bits
Compression mode : Lossy
Stream size : 351 MiB (6%)
Title : Оригинал
Language : English
Default : No
Forced : No
Text #1
ID : 4
Format : UTF-8
Codec ID : S_TEXT/UTF8
Codec ID/Info : UTF-8 Plain Text
Title : Форсированные
Language : Russian
Default : Yes
Forced : No
Text #2
ID : 5
Format : UTF-8
Codec ID : S_TEXT/UTF8
Codec ID/Info : UTF-8 Plain Text
Title : Полные
Language : Russian
Default : No
Forced : No
Text #3
ID : 6
Format : UTF-8
Codec ID : S_TEXT/UTF8
Codec ID/Info : UTF-8 Plain Text
Title : Полные
Language : English
Default : No
Forced : No
Menu
00:00:00.000 : "Peace on Earth"
00:03:49.033 : Settling Down for the Night
00:10:08.834 : Lady Gets a Collar
00:14:55.334 : The Other Side of the Tracks
00:18:56.868 : A Sad Day for Lady
00:23:25.368 : Tramp's Point of View
00:27:44.169 : Lady Wonders, "What Is a Baby?"
00:29:20.037 : "La La La"
00:32:56.170 : Strange Visitors ("The Saiameses Cat Song")
00:36:03.704 : Lady Runs Off
00:40:31.171 : An Eager Beaver Saves the Day
00:43:38.538 : Tramp Takes Lady Around Town
00:46:59.172 : Spaghetti for Two ("Bella Notte")
00:49:53.006 : The Next Morning
00:53:51.173 : The Dog Pound
00:55:42.840 : Lady in the Pound
00:58:33.507 : "He's A Tramp"
01:01:02.540 : Lady's Shame
01:04:52.840 : A Rat in the House
01:05:49.708 : Tramp to the Rescue
01:09:59.175 : Trusty on the Trail
01:12:49.842 : Domestic Life

Скриншоты

Просьба к переливающим на другие сайты, в оформлении указывайте пожалуйста авторство рипа - Tiberiumsun69
 
Показать сообщения:    

Текущее время: 03-Дек 16:42

Часовой пояс: UTC + 3


Вы не можете начинать темы
Вы не можете отвечать на сообщения
Вы не можете редактировать свои сообщения
Вы не можете удалять свои сообщения
Вы не можете голосовать в опросах
Вы не можете прикреплять файлы к сообщениям
Вы не можете скачивать файлы