Стражи Галактики. Часть 2 / Guardians of the Galaxy Vol. 2 (2017) BDRip 1080p | 60 fps Пираты Карибского моря: Мертвецы не рассказывают сказки / Pirates of the Caribbean: Dead Men Tell No Tales (2017) BDRip 1080p | 60 fps Человек-паук: Возвращение домой / Spider-Man: Homecoming (2017) BDRip 1080p | 60 fps Валериан и город тысячи планет / Valerian and the City of a Thousand Planets (2017) BDRip 1080p | 60 fps Мстители: Эра Альтрона / Avengers: Age of Ultron (2015) BDRip 1080p | 60 fps Тор: Рагнарёк / Thor: Ragnarok (2017) BDRip 1080p | 60 fps Форсаж 8 / The Fate of the Furious (2017) BDRip 1080p | 60 fps Тёмная башня / The Dark Tower (2017) BDRip 720p | 60 fps
  1. bot

    Стаж:
    3 года 6 месяцев
    Сообщений:
    410
    Пол:
    Не указан
    «Strangers shouldn't talk to little girls»- Информация
    Название: Леденец
    Оригинальное название: Hard Candy
    Год выхода: 2005
    Жанр: триллер, драма, криминал
    Режиссер: Дэвид Слэйд
    Сценарий: Брайан Нельсон
    Продюсер: Майкл Колдуэлл, Ричард Хаттон, Джоди Аллен
    В ролях: Патрик Уилсон, Эллен Пейдж, Сандра О, Одесса Рэй, Гилберт Джон
    --Сюжет:

    14-летняя «Лолита» знакомится в интернете с 32-летним успешным фотографом Джефом Коулером. Он приглашает ее к себе домой. Подозревая, что Джефф является педофилом, и, стремясь разоблачить его, она отвечает согласием…
    - - Страна: США
    Продолжительность: 01:44:07

    Файл
    Кодек: MPEG4/ISO/AVC H.264
    Формат: MKV
    Качество: BDRip-AVC | 60 fps
    Видео: 1024x440 (2.35:1) | 59.940 fps | 4.0 Мбит/сек
    Аудио : AC3 | 5.1 | 48 kHz | 640 kbps | 16 bit | Дубляж |
    Субтитры: русские (Полные), английские (Полные)

    MedifInfo

    Video
    ID : 1
    Format : AVC
    Format/Info : Advanced Video Codec
    Format profile : High@L4.1
    Format settings, CABAC : Yes
    Format settings, ReFrames : 4 frames
    Codec ID : V_MPEG4/ISO/AVC
    Duration : 1h 44mn
    Bit rate : 4 000 Kbps
    Width : 1 024 pixels
    Height : 440 pixels
    Display aspect ratio : 2.35:1
    Frame rate : 59.940 fps
    Color space : YUV
    Chroma subsampling : 4:2:0
    Bit depth : 8 bits
    Scan type : Progressive
    Bits/(Pixel*Frame) : 0.148
    Stream size : 2.84 GiB (84%)
    Writing library : x264 core 146 r2538 121396c
    Encoding settings : cabac=1 / ref=3 / deblock=1:0:0 / analyse=0x3:0x113 / me=umh / subme=9 / psy=1 / psy_rd=1.00:0.10 / mixed_ref=1 / me_range=32 / chroma_me=1 / trellis=2 / 8x8dct=1 / cqm=0 / deadzone=21,11 / fast_pskip=0 / chroma_qp_offset=-3 / threads=12 / lookahead_threads=3 / sliced_threads=0 / nr=0 / decimate=1 / interlaced=0 / bluray_compat=0 / constrained_intra=0 / bframes=16 / b_pyramid=2 / b_adapt=2 / b_bias=0 / direct=3 / weightb=1 / open_gop=0 / weightp=2 / keyint=250 / keyint_min=25 / scenecut=40 / intra_refresh=0 / rc_lookahead=40 / rc=2pass / mbtree=1 / bitrate=4000 / ratetol=1.0 / qcomp=0.60 / qpmin=0 / qpmax=69 / qpstep=4 / cplxblur=20.0 / qblur=0.5 / vbv_maxrate=14000 / vbv_bufsize=14000 / nal_hrd=none / filler=0 / ip_ratio=1.40 / aq=1:1.00
    Language : English
    Default : Yes
    Forced : No
    Audio
    ID : 2
    Format : AC-3
    Format/Info : Audio Coding 3
    Mode extension : CM (complete main)
    Codec ID : A_AC3
    Duration : 1h 44mn
    Bit rate mode : Constant
    Bit rate : 640 Kbps
    Channel(s) : 6 channels
    Channel positions : Front: L C R, Side: L R, LFE
    Sampling rate : 48.0 KHz
    Bit depth : 16 bits
    Compression mode : Lossy
    Stream size : 477 MiB (14%)
    Default : Yes
    Forced : No
    Text #1
    ID : 3
    Format : UTF-8
    Codec ID : S_TEXT/UTF8
    Codec ID/Info : UTF-8 Plain Text
    Title : Полные
    Language : Russian
    Default : No
    Forced : No
    Text #2
    ID : 4
    Format : UTF-8
    Codec ID : S_TEXT/UTF8
    Codec ID/Info : UTF-8 Plain Text
    Title : Полные
    Language : English
    Default : No
    Forced : No
    Menu
    00:00:00.000 : en:1. Main Titles
    00:02:08.086 : en:2. "Faces Lie"
    00:05:39.130 : en:3. First Impressions
    00:10:34.676 : en:4. Home
    00:14:26.282 : en:5. "Take It All"
    00:17:36.305 : en:6. Lonely
    00:20:17.216 : en:7. Drugged
    00:25:55.345 : en:8. "Busted"
    00:30:01.925 : en:9. Voyeur or Conservationist
    00:33:47.567 : en:10. Hide & Seek
    00:37:08.351 : en:11. Found
    00:39:04.884 : en:12. Combinations
    00:43:47.667 : en:13. Opportunity
    00:46:51.225 : en:14. Preparation
    00:50:56.011 : en:15. Plea
    00:54:49.077 : en:16. So Close...
    01:00:17.906 : en:17. Memories
    01:03:19.087 : en:18. Incision
    01:08:10.253 : en:19. Post-op
    01:12:35.142 : en:20. "I'll Find You"
    01:16:42.431 : en:21. Freedom
    01:19:48.701 : en:22. Summons
    01:22:25.274 : en:23. Unexpected Visitor
    01:26:57.754 : en:24. Offer
    01:30:34.012 : en:25. "Who Are You?"
    01:35:59.587 : en:26. Only Way Out
    01:38:40.123 : en:27. Promise
    01:40:35.446 : en:28. End Credits


Вы не можете начинать темы
Вы не можете отвечать на сообщения
Вы не можете редактировать свои сообщения
Вы не можете удалять свои сообщения
Вы не можете голосовать в опросах
Вы не можете прикреплять файлы к сообщениям
Вы не можете скачивать файлы